<?xml version="1.0" standalone="no"?>
<!DOCTYPE svg PUBLIC "-//W3C//DTD SVG 1.1//EN" "http://www.w3.org/Graphics/SVG/1.1/DTD/svg11.dtd" >
<svg xmlns="http://www.w3.org/2000/svg" xmlns:xlink="http://www.w3.org/1999/xlink" version="1.1">
<metadata>
Created by FontForge 20161003 at Tue Jun 18 12:06:34 2019
 By www-data
Copyright (c) 2015 by Alfredo Marco Padil. All rights reserved.
</metadata>
<defs>
<font id="GlacialIndifference-Regular" horiz-adv-x="570" >
  <font-face 
    font-family="Glacial Indifference"
    font-weight="400"
    font-stretch="normal"
    units-per-em="1000"
    panose-1="0 0 0 0 0 0 0 0 0 0"
    ascent="750"
    descent="-250"
    x-height="440"
    cap-height="680"
    bbox="-32 -251.841 937 893.001"
    underline-thickness="45"
    underline-position="-100"
    unicode-range="U+000D-F8FF"
  />
<missing-glyph horiz-adv-x="270" 
 />
    <glyph glyph-name=".notdef" horiz-adv-x="270" 
 />
    <glyph glyph-name="NULL" horiz-adv-x="0" 
 />
    <glyph glyph-name="NULL" horiz-adv-x="0" 
 />
    <glyph glyph-name="nonmarkingreturn" unicode="&#xd;" horiz-adv-x="0" 
 />
    <glyph glyph-name="space" unicode=" " horiz-adv-x="270" 
 />
    <glyph glyph-name="exclam" unicode="!" horiz-adv-x="300" 
d="M191.5 6.5c-11.667 -11 -25.334 -16.499 -41.001 -16.499s-29.334 5.5 -41.001 16.5s-17.5 24.167 -17.5 39.5s5.83301 28.666 17.5 39.999s25.334 17 41.001 17s29.334 -5.5 41.001 -16.5s17.5 -24.333 17.5 -40s-5.83301 -29 -17.5 -40zM202 750.001l-19 -547h-66
l-19 547h104z" />
    <glyph glyph-name="quotedbl" unicode="&#x22;" horiz-adv-x="367" 
d="M130 750l-18 -252h-51l-17 252h86zM323 750l-17 -252h-51l-18 252h86z" />
    <glyph glyph-name="numbersign" unicode="#" horiz-adv-x="569" 
d="M220 437l-23 -174h160l21 174h-158zM432 437l-22 -174h101v-53h-108l-26 -212l-52 7l25 205h-160l-27 -212l-53 7l26 207h-103v51h111l23 174h-106v51h112l24 199l52 -7l-24 -192h159l25 199l52 -7l-24 -192h102v-51h-107z" />
    <glyph glyph-name="dollar" unicode="$" horiz-adv-x="590" 
d="M284 -70l0.00195312 57.0029c-99.4873 4.62695 -171.32 37.96 -215.5 99.999c-15.667 22 -26.167 48.667 -31.5 80h91c11.71 -67.915 63.71 -103.582 156 -107v254c-28 7.33301 -55.5 15.333 -82.5 24s-51.167 20 -72.5 34c-48 31.5 -72 75.5 -72 132
c0 59.5996 23.833 106.267 71.5 140c41.2324 29.1797 93.0654 44.5127 155.499 45.999v60h55v-63c76.5879 -9.01074 132.588 -38.6777 168 -89.001c12.667 -18 21.667 -39.333 27 -64h-83c-6.92676 38.0957 -32.0938 63.5957 -75.501 76.5
c-12.333 3.66699 -24.5 6.5 -36.5 8.5v-240c28 -6.66699 55.5 -14.167 82.5 -22.5s51.167 -19.5 72.5 -33.5c47.333 -31.0625 71 -76.0625 71 -135c0 -62.6982 -23.167 -111.698 -69.5 -147c-38.5225 -29.3506 -90.6895 -47.0176 -156.5 -53v-58h-55zM284.002 392.003v230
c-39.2266 0 -72.5596 -8.16699 -100 -24.5c-31.333 -18.6504 -47 -45.1504 -47 -79.5c0 -36.1953 14.5 -64.1953 43.5 -84c23.0625 -15.75 57.5625 -29.75 103.5 -42zM339.002 300.003v-238.999c38.0889 4.39453 71.0889 16.2275 99 35.499
c31.333 21.6348 47 49.1348 47 82.5c0 46.1514 -29.833 80.4844 -89.5 103c-17.667 6.66699 -36.5 12.667 -56.5 18z" />
    <glyph glyph-name="percent" unicode="%" horiz-adv-x="731" 
d="M557 222c-24.7949 0 -42.9619 -10.002 -54.5 -30.002c-9 -15.5996 -13.5 -35.9326 -13.5 -60.999c0 -39.8516 11.5 -67.0186 34.5 -81.5c9 -5.66699 20 -8.5 33 -8.5s24 2.83301 33 8.5s16 12.834 21 21.501c9.66699 16.7559 14.5 33.4443 14.5 50.0664
s-1 30.2666 -3 40.9336s-5.5 20.5 -10.5 29.5c-11.2959 20.333 -29.4629 30.5 -54.5 30.5zM208 629.498c-8.66699 5.66699 -19.833 8.49902 -33.5 8.49902s-25 -2.83301 -34 -8.5s-16 -12.834 -21 -21.501c-9 -15.5996 -13.5 -32.166 -13.5 -49.6992s1 -31.6328 3 -42.2998
s5.5 -20.334 10.5 -29.001c11.5381 -20 29.7051 -30 54.5 -30c23.6924 0 41.6924 10 54 30c9.33301 15.167 14 31.625 14 49.375s-1 31.958 -3 42.625s-5.5 20.334 -10.5 29.001s-11.833 15.834 -20.5 21.501zM557.001 -10.0029c-43.4414 0 -77.4414 16.5 -102 49.5
c-20 26.875 -30 57.375 -30 91.5c0 31.9551 9.33301 61.6221 28 89c24.0908 35.333 58.7578 53 104 53c44.5762 0 78.9092 -17.667 103 -53c18.667 -27.3779 28 -57.0449 28 -89c0 -33.7207 -9.83301 -64.2207 -29.5 -91.5c-23.791 -33 -57.624 -49.5 -101.5 -49.5z
M269.001 -0.00292969h-70l273 680h72zM174.001 405.997c-43.876 0 -77.709 16.5 -101.5 49.5c-19.667 27.2793 -29.5 57.7793 -29.5 91.5c0 31.9551 9.33301 61.6221 28 89c24.0908 35.333 58.4238 53 103 53c45.2422 0 79.9092 -17.667 104 -53
c18.667 -27.3779 28 -57.0449 28 -89c0 -34.125 -10 -64.625 -30 -91.5c-24.5586 -33 -58.5586 -49.5 -102 -49.5z" />
    <glyph glyph-name="ampersand" unicode="&#x26;" horiz-adv-x="689" 
d="M263 345c-38.4004 -27.7334 -65 -49 -79.7998 -63.7998c-32.7998 -32.7998 -49.2002 -63.2002 -49.2002 -91.2002c0 -33.4541 12.167 -63.4541 36.5 -90c24.4443 -26.667 53.6113 -40 87.5 -40c36.8076 0 77.3076 20.833 121.5 62.5c11.667 11 22.5 21.5 32.5 31.5z
M257 456.5c8 -8.33301 15.667 -16.833 23 -25.5c10 7.33301 20.5 14.833 31.5 22.5s21.167 16.167 30.5 25.5c21.333 21.333 32 44.333 32 69s-8.33301 44 -25 58s-35.167 21.5 -55.5 22.5s-38.833 -5.16699 -55.5 -18.5s-25 -34.6104 -25 -63.833
s14.667 -59.1113 44 -89.667zM595 265c-9.92383 -13.7051 -39.9248 -51.041 -90.001 -112.003l117 -153l-92 -2l-74 97c-33.1113 -33.1113 -59.8887 -56.0557 -80.333 -68.833c-40.7109 -25.4443 -76.666 -38.167 -107.866 -38.167s-58.9668 4.83301 -83.2998 14.5
s-45.333 23.334 -63 41.001c-37.667 37.667 -56.5 84.834 -56.5 141.501c0 65.6543 32.333 122.154 97 169.5c18.667 13.667 38 27.834 58 42.501c-48 55.3848 -72 104.23 -72 146.538s13.333 77.2949 40 104.962s62 41.5 106 41.5c42.3154 0 76.8154 -13 103.5 -39
c27.667 -26.957 41.5 -60.957 41.5 -102c0 -43.667 -26 -87.167 -78 -130.5c-14 -11.667 -27.333 -22.5 -40 -32.5l140 -179c13.333 16 26.333 32 39 48l38 48z" />
    <glyph glyph-name="quotesingle" unicode="'" horiz-adv-x="173" 
d="M130 750l-18 -252h-51l-17 252h86z" />
    <glyph glyph-name="parenleft" unicode="(" horiz-adv-x="308" 
d="M244 750c-49.2256 -84.3867 -84.7275 -189.888 -106.502 -316.501c-9 -52.333 -13.5 -109.5 -13.5 -171.5s4.33301 -119.333 13 -172s19.334 -99.5 32.001 -140.5c20.4229 -66.1064 45.0898 -123.939 74 -173.5h-66c-22.0264 31.8164 -42.0332 75.6035 -60.0195 131.362
c-37.9863 117.759 -56.9795 236.305 -56.9795 355.638c0 120.257 16.5 232.424 49.5 336.501c18.5049 58.3623 40.6719 108.529 66.5 150.5h68z" />
    <glyph glyph-name="parenright" unicode=")" horiz-adv-x="308" 
d="M233 453.5c10 -56.333 14.998 -119.5 14.998 -189.5s-5 -133 -15 -189s-21.667 -104.667 -35 -146c-22.6396 -70.1836 -44.9727 -121.184 -66.999 -153h-66c48.8809 83.7949 84.0479 188.462 105.501 314c9 52.667 13.5 110 13.5 172s-4.5 119.167 -13.5 171.5
s-19.833 99.333 -32.5 141c-20.5869 67.7207 -45.2539 126.221 -74 175.5h68c45.3164 -73.6396 78.9834 -172.473 101 -296.5z" />
    <glyph glyph-name="asterisk" unicode="*" horiz-adv-x="530" 
d="M454 582l-160 -28l114 -111l-70 -51l-73 141l-73 -141l-70 51l114 111l-159 28l26 82l144 -76l-25 162h86l-25 -162l144 76z" />
    <glyph glyph-name="plus" unicode="+" horiz-adv-x="460" 
d="M423 194h-164v-164h-58v164h-163v57h163v164h58v-164h164v-57z" />
    <glyph glyph-name="comma" unicode="," horiz-adv-x="232" 
d="M204 118l-112 -259h-42l58 259h96z" />
    <glyph glyph-name="hyphen" unicode="-" horiz-adv-x="410" 
d="M373 194h-335v57h335v-57z" />
    <glyph glyph-name="period" unicode="." horiz-adv-x="267" 
d="M133 -10c-15.333 0 -28.833 5.50098 -40.5 16.501s-17.5 24.167 -17.5 39.5s5.66699 28.666 17 39.999s25 17 41 17s29.833 -5.5 41.5 -16.5s17.5 -24.333 17.5 -40s-6 -29 -18 -40s-25.667 -16.5 -41 -16.5z" />
    <glyph glyph-name="slash" unicode="/" horiz-adv-x="538" 
d="M506 750l-388 -951h-75l388 951h75z" />
    <glyph glyph-name="zero" unicode="0" horiz-adv-x="560" 
d="M334.5 601c-16.333 10 -35.668 15.002 -58.001 15.002s-41.666 -4.83301 -57.999 -14.5s-30.333 -22.5 -42 -38.5s-21.167 -34 -28.5 -54s-13 -40.167 -17 -60.5c-7.33301 -37.2773 -11 -68.5137 -11 -93.708s0.833008 -47.458 2.5 -66.791s4.5 -39.333 8.5 -60
s9.83301 -40.834 17.5 -60.501s17.334 -37.334 29.001 -53.001c26.0635 -35 59.8965 -52.5 101.499 -52.5c37.2363 0 68.7363 17.667 94.5 53c30.5713 41.9258 49.7383 99.7588 57.5 173.499c2 19 3 35.5 3 49.5c0 60.0605 -9.66699 116.894 -29 170.5
c-15.2236 42.2119 -38.7236 73.0449 -70.5 92.5zM279.998 -8.99805c-80.3496 0 -140.85 39.5 -181.5 118.5c-32.333 62.8369 -48.5 140.004 -48.5 231.501s16.167 168.664 48.5 231.501c40.6504 79 101.15 118.5 181.5 118.5s140.85 -39.5 181.5 -118.5
c32.333 -62.8369 48.5 -140.004 48.5 -231.501s-16.167 -168.664 -48.5 -231.501c-40.6504 -79 -101.15 -118.5 -181.5 -118.5z" />
    <glyph glyph-name="one" unicode="1" horiz-adv-x="287" 
d="M148 0v609h-98v61l168 18v-688h-70z" />
    <glyph glyph-name="two" unicode="2" horiz-adv-x="615" 
d="M63 0l351.998 354.999c30 30 45 66.667 45 110c0 42.3877 -15.5 78.7207 -46.5 109c-30.7139 30 -67.8809 45 -111.5 45c-44.5068 0 -82.3398 -16.667 -113.499 -50c-32.1738 -34.4189 -46.3408 -72.752 -42.5 -115h-71c-2.73145 65.5537 18.4355 121.221 63.5 167.001
c45.9375 46.667 101.438 70 166.5 70c62.5469 0 116.714 -22.167 162.501 -66.5c45 -43.5713 67.5 -97.0713 67.5 -160.5c0 -62 -22 -115 -66 -159l-237 -235h310v-70h-479z" />
    <glyph glyph-name="three" unicode="3" horiz-adv-x="520" 
d="M356.5 7.5c-27.667 -11.667 -55.3271 -17.5029 -82.9941 -17.5029s-52.834 3.66699 -75.501 11s-43.5 17.5 -62.5 30.5c-40.6113 27.7861 -68.7783 63.9531 -84.501 108.5l68 23c11.333 -31.333 30.666 -56.166 57.999 -74.499s54.666 -27.5 81.999 -27.5
s50.666 4.16699 69.999 12.5s36.166 19.5 50.499 33.5c31.667 30.9307 47.5 67.5977 47.5 110.001c0 43.333 -15.5 80.5 -46.5 111.5s-68.5 46.5 -112.5 46.5s-82 -16 -114 -48l-53 43l206 240h-224v70h366l-213 -252l30 18
c65.4863 -4.17969 119.653 -27.0127 162.5 -68.499c45.667 -44.2168 68.5 -98.0498 68.5 -161.5c0 -63.4287 -22.5 -116.929 -67.5 -160.5c-21 -20.333 -45.333 -36.333 -73 -48z" />
    <glyph glyph-name="four" unicode="4" horiz-adv-x="605" 
d="M399 604l-260 -393h260v393zM472 139v-139h-73v139h-384l358 541h98l1 -469h86v-72h-86z" />
    <glyph glyph-name="five" unicode="5" horiz-adv-x="550" 
d="M179 428c34.1338 10.667 65.835 16 95.1016 16s57.5664 -5.83301 84.8994 -17.5s51.333 -27.5 72 -47.5c44 -42.5811 66 -95.5811 66 -159c0 -63.6133 -22.333 -118.113 -67 -163.5c-44.9414 -45.667 -99.6084 -68.5 -164 -68.5c-47.8975 0 -92.0645 13.833 -132.5 41.5
c-39.9766 27.3525 -68.1436 63.5195 -84.5 108.5l68 22c11.333 -30 30.666 -54.333 57.999 -73s54.833 -28 82.5 -28s51 4.16699 70 12.5s35.833 19.5 50.5 33.5c31.333 29.9092 47 66.5762 47 110c0 41.873 -15.333 78.873 -46 111
c-29.9092 31.333 -65.0527 47 -105.432 47s-74.9014 -10.667 -103.568 -32l-76 34l78 305h299v-70h-246z" />
    <glyph glyph-name="six" unicode="6" horiz-adv-x="512" 
d="M257.5 371c-21.667 0 -42.166 -4.16699 -61.499 -12.5s-36.333 -19.5 -51 -33.5c-31.333 -29.9092 -47 -66.2422 -47 -109c0 -43.0459 15.667 -79.8789 47 -110.5c31.7207 -31 69.0537 -46.5 111.999 -46.5c44 0 81 15 111 45c30.667 30.667 46 67 46 109
c0 42.9609 -15.167 79.9609 -45.5 111c-30.6211 31.333 -67.6211 47 -111 47zM485.001 218c0 -33.333 -6 -63.667 -18 -91s-28.333 -51.333 -49 -72c-44 -44 -98 -66 -162 -66c-62.9395 0 -116.939 22.167 -162 66.5c-44.667 43.9463 -67 97.4463 -67 160.5
c0 54.5332 17 102.2 51 143l266 321h92l-208 -250l20 13c68.1201 -2.83789 123.787 -23.8379 167 -63c46.667 -42.292 70 -96.292 70 -162z" />
    <glyph glyph-name="seven" unicode="7" horiz-adv-x="493" 
d="M158 0h-78l268 607h-318v70h427z" />
    <glyph glyph-name="eight" unicode="8" horiz-adv-x="526" 
d="M263 346c-40.2803 0 -74.4473 -13.667 -102.5 -41c-27.667 -26.957 -41.5 -60.29 -41.5 -99.999c0 -39.2285 13.667 -73.2285 41 -102c27.2334 -28.667 61.5664 -43 103 -43s75.7666 14.333 103 43c27.333 28.7715 41 62.7715 41 102
c0 39.709 -13.833 73.042 -41.5 99.999c-28.0527 27.333 -62.2197 41 -102.5 41zM263 622c-32.5781 0 -60.2451 -10.667 -83.001 -32c-23.333 -21.875 -35 -48.875 -35 -81c0 -31.333 11.667 -58.666 35 -81.999c22.667 -22.667 50.334 -34 83.001 -34
s60.334 11.333 83.001 34c23.333 23.333 35 50.666 35 81.999c0 32.125 -11.667 59.125 -35 81c-22.7559 21.333 -50.4229 32 -83.001 32zM263 -10c-62.415 0 -114.917 18.498 -157.502 55.498c-43.667 37.9395 -65.5 87.4395 -65.5 148.5
c0 33.333 9.83301 65.833 29.5 97.5s47.834 57.5 84.501 77.5c-54 44.667 -81 93.334 -81 146.001c0 51.9609 18.5 94.6279 55.5 128c35.4785 32 80.3115 48 134.5 48s99.0215 -16 134.5 -48c37 -33.3721 55.5 -76.2148 55.5 -128.528s-27 -100.804 -81 -145.471
c36.667 -20 64.834 -45.833 84.501 -77.5s29.5 -63.667 29.5 -96s-5.83301 -61 -17.5 -86s-27.667 -46.333 -48 -64c-42.585 -37 -95.085 -55.5 -157.5 -55.5z" />
    <glyph glyph-name="nine" unicode="9" horiz-adv-x="512" 
d="M254.5 309c21.667 0 42.167 4.16699 61.5 12.5s36.166 19.5 50.499 33.5c31.667 30.9307 47.5 67.2637 47.5 109c0 43.0459 -15.667 79.8789 -47 110.5c-31.7207 31 -69.0537 46.5 -111.999 46.5c-44 0 -81 -15 -111 -45c-30.667 -30.667 -46 -67 -46 -109
c0 -42.9609 15.167 -79.9609 45.5 -111c30.6211 -31.333 67.6211 -47 111 -47zM27 462c0 33.333 6 63.667 18 91s28.333 51.333 49 72c44 44 98 66 162 66c62.9395 0 116.939 -22.167 162 -66.5c44.667 -43.9463 67 -97.4463 67 -160.5c0 -54.5332 -17 -102.2 -51 -143
l-266 -321h-92l208 250l-20 -13c-68.1201 2.83789 -123.787 23.8379 -167 63c-46.667 42.292 -70 96.292 -70 162z" />
    <glyph glyph-name="colon" unicode=":" horiz-adv-x="267" 
d="M133 -10c-15.333 0 -28.833 5.50098 -40.5 16.501s-17.5 24.167 -17.5 39.5s5.66699 28.666 17 39.999s25 17 41 17s29.833 -5.5 41.5 -16.5s17.5 -24.333 17.5 -40s-6 -29 -18 -40s-25.667 -16.5 -41 -16.5zM133 377.001c-15.333 0 -28.833 5.50098 -40.5 16.501
s-17.5 24.167 -17.5 39.5s5.66699 28.666 17 39.999s25 17 41 17s29.833 -5.5 41.5 -16.5s17.5 -24.333 17.5 -40s-6 -29 -18 -40s-25.667 -16.5 -41 -16.5z" />
    <glyph glyph-name="semicolon" unicode=";" horiz-adv-x="267" 
d="M133 377c-15.333 0 -28.833 5.50098 -40.5 16.501s-17.5 24.167 -17.5 39.5s5.66699 28.666 17 39.999s25 17 41 17s29.833 -5.5 41.5 -16.5s17.5 -24.333 17.5 -40s-6 -29 -18 -40s-25.667 -16.5 -41 -16.5zM195 118.001l-112 -259h-42l58 259h96z" />
    <glyph glyph-name="less" unicode="&#x3c;" horiz-adv-x="516" 
d="M471 -38l-426 211v71l426 211v-72l-368 -175l368 -174v-72z" />
    <glyph glyph-name="equal" unicode="=" horiz-adv-x="460" 
d="M383 101h-335v57h335v-57zM383 282h-335v57h335v-57z" />
    <glyph glyph-name="greater" unicode="&#x3e;" horiz-adv-x="516" 
d="M45 34l368 174l-368 175v72l426 -211v-71l-426 -211v72z" />
    <glyph glyph-name="question" unicode="?" horiz-adv-x="506" 
d="M297.5 6.5c-11.667 -11 -25.334 -16.499 -41.001 -16.499s-29.334 5.5 -41.001 16.5s-17.5 24.167 -17.5 39.5s5.83301 28.666 17.5 39.999s25.334 17 41.001 17s29.334 -5.5 41.001 -16.5s17.5 -24.333 17.5 -40s-5.83301 -29 -17.5 -40zM298 203.001
l-84.998 0.000976562v175c0 51.7539 25 93.4209 75 125c32.3096 20.4062 52.8867 36.8408 61.7314 49.3047s13.2676 26.6953 13.2676 42.6953c0 32.667 -10.333 57 -31 73s-46.167 24 -76.5 24s-56 -7.83301 -77 -23.5s-33.167 -39.167 -36.5 -70.5h-83
c5.07617 53.3018 25.9092 94.3018 62.499 123c33.1504 26 77.6504 39 133.5 39c54.7646 0 99.5977 -13.5 134.5 -40.5c39 -30.1699 58.5 -71.6699 58.5 -124.5c0 -31.0977 -13 -59.2646 -39 -84.5c-11.333 -11 -23.333 -21.333 -36 -31s-24.667 -19.667 -36 -30
c-26 -23.7061 -39 -47.873 -39 -72.501v-174z" />
    <glyph glyph-name="at" unicode="@" horiz-adv-x="551" 
d="M289.5 180.5c9.66699 -12.333 24 -18.5 43 -18.5s33.333 6.16699 43 18.5s14.5 26 14.5 41s-4.83301 28.667 -14.5 41s-24 18.5 -43 18.5s-33.333 -6.16699 -43 -18.5s-14.5 -26 -14.5 -41s4.83301 -28.667 14.5 -41zM453 113l-51.999 -0.000976562v39
c-4 -15.333 -13.667 -27.333 -29 -36s-31.5 -13 -48.5 -13s-32.333 3.33301 -46 10s-25.5 15.667 -35.5 27c-20.667 23.4219 -31 52.4219 -31 87c0 29.9043 10 55.5713 30 77c21.1553 22.667 46.4883 34 75.999 34c36.667 1.33301 64.667 -12.667 84 -42
c0 40 -7.66699 67.167 -23 81.5s-37 21.5 -65 21.5s-52.5 -4.16699 -73.5 -12.5s-38.833 -20.166 -53.5 -35.499c-30.667 -32.0605 -46 -73.3936 -46 -124c0 -47.8916 18.167 -88.8916 54.5 -123c34.7969 -32.667 76.2969 -49 124.5 -49h130v-55h-130
c-70.1924 0 -127.525 20.5 -172 61.5c-46 42.4062 -69 97.5732 -69 165.5c0 69.2441 20.667 125.911 62 170c42.5 45.333 98.833 68 169 68c41.75 0 76.083 -11.333 103 -34c27.333 -23.0176 41 -51.6846 41 -86v-232z" />
    <glyph glyph-name="A" unicode="A" horiz-adv-x="617" 
d="M185.023 250h247.397l-123.421 313zM607 0h-76l-72.9482 185h-298.774l-73.2773 -185h-76l299 727z" />
    <glyph glyph-name="B" unicode="B" horiz-adv-x="539" 
d="M519 189.5c0 -27.667 -6.33398 -54.1689 -19.001 -79.502s-29.667 -46.166 -51 -62.499c-41.3604 -31.667 -96.6934 -47.5 -165.999 -47.5h-208v680h184c99.5957 0 164.263 -30.667 194 -92c10.667 -22 16 -44.333 16 -67s-1.83301 -40.5 -5.5 -53.5s-9 -25.5 -16 -37.5
c-15.2246 -26.0996 -34.7246 -44.4326 -58.5 -54.999c39.9297 -10.6475 71.5967 -32.1475 95 -64.5c23.333 -32.2549 35 -72.5879 35 -121zM398.999 509.998c0 68.667 -46.667 103 -140 103h-114v-212h134c36 0 65 9 87 27s33 45.333 33 82zM448.999 202.998
c0 20 -3.83301 37.667 -11.5 53s-17.667 28.5 -30 39.5c-26.5352 23.667 -57.7021 35.5 -93.5 35.5h-169v-264h158c42.9443 0 77.7773 12.333 104.5 37c27.667 25.5381 41.5 58.5381 41.5 99z" />
    <glyph glyph-name="C" unicode="C" horiz-adv-x="729" 
d="M699 208c-25.2344 -65.0771 -66.5664 -117.575 -123.999 -157.498c-58.0234 -40.333 -121.69 -60.5 -191 -60.5c-94.2227 0 -174.556 34.667 -241 104c-65.333 68.1738 -98 149.841 -98 245c0 47.333 8.66699 92.166 26 134.499s41.333 79.5 72 111.5
c66.4443 69.333 146.777 104 241 104c69.6025 0 132.936 -19.833 190 -59.5c57.0713 -39.6719 98.4043 -91.8389 124 -156.501h-77c-36.7881 67.4443 -91.6211 111.944 -164.5 133.5c-23.667 7 -51.167 10.5 -82.5 10.5s-63.333 -7.5 -96 -22.5s-61.167 -35.167 -85.5 -60.5
c-51.667 -53.79 -77.5 -118.79 -77.5 -195c0 -75.543 25.833 -140.21 77.5 -194c53.1494 -55.333 116.982 -83 191.5 -83c50.667 0 97.167 13.333 139.5 40s75.166 62 98.499 106h77z" />
    <glyph glyph-name="D" unicode="D" horiz-adv-x="648" 
d="M603 340c0 -49.333 -9.16699 -94.833 -27.5 -136.5s-43.166 -77.5 -74.499 -107.5s-68.333 -53.5 -111 -70.5s-88.334 -25.5 -137.001 -25.5h-178v680h178c48.667 0 94.334 -8.5 137.001 -25.5s79.667 -40.5 111 -70.5s56.166 -65.833 74.499 -107.5
s27.5 -87.167 27.5 -136.5zM535 340c0 77.5439 -27.333 142.211 -82 194c-53.4814 50.667 -119.481 76 -198 76h-110v-540h110c78.5186 0 144.519 25.333 198 76c54.667 51.7891 82 116.456 82 194z" />
    <glyph glyph-name="E" unicode="E" horiz-adv-x="554" 
d="M479 0h-404v680h404v-65h-334v-242h324v-66h-324v-242h334v-65z" />
    <glyph glyph-name="F" unicode="F" horiz-adv-x="499" 
d="M479 615h-334v-242h324v-66h-324v-307h-70v680h404v-65z" />
    <glyph glyph-name="G" unicode="G" horiz-adv-x="791" 
d="M746 318l-7.00098 -42c-14.6758 -82.7168 -55.0645 -150.729 -121.167 -204.038s-140.38 -79.9629 -222.833 -79.9629c-48 0 -93.333 9.16699 -136 27.5s-79.834 43.333 -111.501 75s-56.667 68.834 -75 111.501s-27.5 88.167 -27.5 136.5s9.16699 93.833 27.5 136.5
s43.333 79.834 75 111.501s68.834 56.667 111.501 75s85.667 27.5 129 27.5c81.4043 0 153.229 -23.0801 215.474 -69.2393s104.754 -106.746 127.526 -181.761h-74c-21.4854 55.0557 -55.96 98.9863 -103.423 131.792s-100.322 49.208 -158.577 49.208
c-77.333 0 -143.333 -27.333 -198 -82s-82 -120.667 -82 -198c0 -76.9473 27.2383 -143.018 81.7148 -198.211s120.572 -82.79 198.286 -82.79c61.6475 0 117.531 17.751 167.651 53.2529s85.2363 82.751 105.349 141.747h-276v61h354z" />
    <glyph glyph-name="H" unicode="H" horiz-adv-x="599" 
d="M145 0h-70v680h70v-306h309v306h70v-680h-70v304h-309v-304z" />
    <glyph glyph-name="I" unicode="I" horiz-adv-x="220" 
d="M145 0h-70v680h70v-680z" />
    <glyph glyph-name="J" unicode="J" horiz-adv-x="365" 
d="M305 168c0 -65.0391 -22.832 -113.039 -68.499 -144c-35.8193 -24.2842 -80.8193 -35.6172 -135 -34c-22.333 0.666992 -42.333 3.5 -60 8.5s-29.834 10.167 -36.501 15.5v77c18.5713 -15.7139 46.0713 -25.7139 82.5 -30c38.7256 -4.55566 71.7256 0.777344 99 16
c32.333 18.0469 48.5 48.3799 48.5 91v512h70v-512z" />
    <glyph glyph-name="K" unicode="K" horiz-adv-x="474" 
d="M145 0h-70v680h70v-319.099l229 319.099h90l-250 -340l250 -340h-90l-229 319.099v-319.099z" />
    <glyph glyph-name="L" unicode="L" horiz-adv-x="408" 
d="M145 70h243v-70h-243h-35h-35v680h70v-610z" />
    <glyph glyph-name="M" unicode="M" horiz-adv-x="783" 
d="M702 0l-106 484l-204 -524l-205 524l-105 -484h-72l159 725l223 -582l223 582l158 -725h-71z" />
    <glyph glyph-name="N" unicode="N" horiz-adv-x="602" 
d="M145 501v-501h-70v723l382 -543v500h70v-722z" />
    <glyph glyph-name="O" unicode="O" horiz-adv-x="789" 
d="M674 342c0 76.667 -27.333 142.334 -82 197.001s-120.667 82 -198 82c-76.667 0 -142.334 -27.333 -197.001 -82s-82 -120.334 -82 -197.001c0 -77.333 27.333 -143.333 82 -198s120.334 -82 197.001 -82c77.333 0 143.333 27.333 198 82s82 120.667 82 198zM744 342
c0 -48 -9.16699 -93.333 -27.5 -136s-43.333 -79.834 -75 -111.501s-68.834 -56.667 -111.501 -75s-88 -27.5 -136 -27.5s-93.167 9.16699 -135.5 27.5s-79.333 43.333 -111 75s-56.667 68.834 -75 111.501s-27.5 88 -27.5 136s9.16699 93.333 27.5 136
s43.333 79.667 75 111s68.667 56.166 111 74.499s87.5 27.5 135.5 27.5s93.333 -9.16699 136 -27.5s79.834 -43.166 111.501 -74.499s56.667 -68.333 75 -111s27.5 -88 27.5 -136z" />
    <glyph glyph-name="P" unicode="P" horiz-adv-x="529" 
d="M145 337.269h158c39.0449 0 71.3779 13.167 97 39.5c26 26.7217 39 60.1523 39 100.292c0 40.1387 -12.333 72.875 -37 98.208s-57.667 38 -99 38h-158v-276zM509 475.269c0 -59.5361 -21.167 -109.037 -63.5 -148.501c-41.1211 -38.333 -91.9541 -57.5 -152.5 -57.5
h-148v-269h-70v680h218c60.1484 0 110.981 -19 152.5 -57c42.333 -38.7451 63.5 -88.0781 63.5 -147.999z" />
    <glyph glyph-name="Q" unicode="Q" horiz-adv-x="784" 
d="M744 339c0 -48 -9.16602 -93.166 -27.499 -135.499s-43.333 -79.333 -75 -111c-20.4248 -20.4248 -43.1367 -38.0762 -68.1367 -52.9541c27.9199 6.14941 54.1318 11.9668 78.6357 17.4531h102v-57h-276.074c-27.0059 -6.66699 -54.9814 -10 -83.9268 -10
c-48 0 -93.167 9.16699 -135.5 27.5s-79.333 43.333 -111 75s-56.667 68.667 -75 111s-27.5 87.5 -27.5 135.5s9.16699 93.333 27.5 136s43.333 79.834 75 111.501s68.667 56.667 111 75s87.5 27.5 135.5 27.5s93.333 -9.16699 136 -27.5s79.834 -43.333 111.501 -75
s56.667 -68.834 75 -111.501s27.5 -88 27.5 -136zM674.001 339.001c0 77.333 -27.333 143.333 -82 198s-120.667 82 -198 82c-76.667 0 -142.334 -27.333 -197.001 -82s-82 -120.667 -82 -198c0 -76.667 27.333 -142.334 82 -197.001s120.334 -82 197.001 -82
c77.333 0 143.333 27.333 198 82s82 120.334 82 197.001z" />
    <glyph glyph-name="R" unicode="R" horiz-adv-x="544" 
d="M145 336h158.001c39.4033 0 71.7363 13.333 96.999 40c26 27.4443 39 60.9717 39 100.583s-12.333 72.25 -37 97.917s-57.667 38.5 -99 38.5h-158v-277zM509.001 475c0 -59.5371 -21.167 -109.037 -63.5 -148.5c-37.0586 -34.5459 -82.0049 -53.5254 -134.84 -56.9385
l209.34 -269.562h-94l-199.365 269h-81.6348v-269h-70v680h218c60.5459 0 111.379 -19.167 152.5 -57.5c42.333 -39.4629 63.5 -88.6299 63.5 -147.5z" />
    <glyph glyph-name="S" unicode="S" horiz-adv-x="574" 
d="M263.89 320.737c-138.704 32.1592 -208.025 91.6494 -207.962 178.47c0.046875 63.8623 22.4033 111.627 67.0703 143.294s97.165 47.5 157.495 47.5c132.203 0 210.729 -49.333 235.579 -148h-75.7168c-13.5713 58.667 -66.8584 88 -159.861 88
c-65.6631 0 -111.54 -19.4775 -137.63 -58.4326c-9.91016 -14.3779 -14.8164 -32.6982 -14.7188 -54.96c-0.181641 -41.627 22.4775 -73.8779 67.9766 -96.7529c21.4062 -11.3604 66.7373 -26.0098 135.993 -43.9482s119.5 -37.9561 150.731 -60.0537
c43.4346 -30.5693 65.2012 -73.6865 65.2988 -129.353c-0.0976562 -68.334 -27.1504 -120.027 -81.1582 -155.079c-45.3252 -29.6143 -101.354 -44.4219 -168.085 -44.4219c-150.602 0 -237.902 57.333 -261.902 172h82.7549c12.8301 -72 72.5645 -108 179.202 -108
c76.0283 0 129.166 21.1387 159.413 63.416c11.7529 16.3896 17.6299 38.751 17.6299 67.084s-10.9492 51.3613 -32.8477 69.085c-31.4355 25.6465 -91.1895 49.0303 -179.263 70.1523z" />
    <glyph glyph-name="T" unicode="T" horiz-adv-x="440" 
d="M20 617v65h165h70h165v-65h-165v-615h-70v615h-165z" />
    <glyph glyph-name="U" unicode="U" horiz-adv-x="627" 
d="M567 225c0 -73.6475 -24.001 -131.647 -72.001 -174c-45.333 -40 -105.666 -60 -180.999 -60c-76 0 -136.667 20 -182 60c-48 42.3525 -72 100.353 -72 174v455h70v-465c0 -51.0977 18.5 -90.4307 55.5 -117.999c32.2109 -24 75.0439 -36 128.5 -36
c83.0342 0 139.034 28 168 84c10 19.333 15 42.666 15 69.999v465h70v-455z" />
    <glyph glyph-name="V" unicode="V" horiz-adv-x="637" 
d="M319 -41l-309 721h76l233 -548l232 548h76z" />
    <glyph glyph-name="W" unicode="W" horiz-adv-x="783" 
d="M615 -55l-223 592l-223 -592l-159 735h72l105 -494l205 534l204 -534l106 494h71z" />
    <glyph glyph-name="X" unicode="X" horiz-adv-x="606" 
d="M499 0l-196 290l-196 -290h-86l239 339l-240 341h87l196 -290l196 290h86l-239 -340l239 -340h-86z" />
    <glyph glyph-name="Y" unicode="Y" horiz-adv-x="605" 
d="M338 320.024v-320.024h-70v319.856l-258 360.144h90l203 -291l203 291h89z" />
    <glyph glyph-name="Z" unicode="Z" horiz-adv-x="580" 
d="M152 65h386v-65h-513l403 615h-382v65h509z" />
    <glyph glyph-name="bracketleft" unicode="[" horiz-adv-x="352" 
d="M279 -213h-181v963h181v-49h-115v-864h115v-50z" />
    <glyph glyph-name="backslash" unicode="\" horiz-adv-x="538" 
d="M506 -201h-74l-389 951h75z" />
    <glyph glyph-name="bracketright" unicode="]" horiz-adv-x="352" 
d="M254 -213h-181v50h115v864h-115v49h181v-963z" />
    <glyph glyph-name="asciicircum" unicode="^" horiz-adv-x="585" 
d="M527 343h-77l-157 291l-157 -291h-77l182 336h103z" />
    <glyph glyph-name="underscore" unicode="_" horiz-adv-x="585" 
d="M563 -146h-540v58h540v-58z" />
    <glyph glyph-name="grave" unicode="`" horiz-adv-x="186" 
d="M166 750h-56l-110 143h76z" />
    <glyph glyph-name="a" unicode="a" 
d="M425 220c0 42.8291 -14.833 80.1621 -44.5 112c-29.8184 32 -66.6514 48 -110.5 48s-80.6816 -16 -110.5 -48c-29.667 -31.8379 -44.5 -69.1709 -44.5 -112s14.833 -80.1621 44.5 -112c29.8184 -32 66.6514 -48 110.5 -48s80.6816 16 110.5 48
c29.667 31.8379 44.5 69.1709 44.5 112zM495 0l-70 0.00195312v75.1348c-3.92578 -5.14062 -8.09277 -10.1855 -12.5 -15.1348c-41.5625 -46.667 -92.7295 -70 -153.5 -70s-111.938 23.333 -153.5 70c-40.333 45.2861 -60.5 98.6191 -60.5 159.999
s20.167 114.713 60.5 159.999c41.5625 46.667 92.7295 70 153.5 70s111.938 -23.333 153.5 -70c4.40723 -4.94922 8.57422 -9.99414 12.5 -15.1348v75.1348h70v-440z" />
    <glyph glyph-name="b" unicode="b" 
d="M145 0l-70 -0.00195312v750h70v-385.135c3.92578 5.14062 8.09277 10.1855 12.5 15.1348c41.5625 46.667 92.7295 70 153.5 70s111.938 -23.333 153.5 -70c40.333 -45.2861 60.5 -98.6191 60.5 -159.999s-20.167 -114.713 -60.5 -159.999
c-41.5625 -46.667 -92.7295 -70 -153.5 -70s-111.938 23.333 -153.5 70c-4.40723 4.94922 -8.57422 9.99414 -12.5 15.1348v-75.1348zM455 219.998c0 42.8291 -14.833 80.1621 -44.5 112c-29.8184 32 -66.6514 48 -110.5 48s-80.6816 -16 -110.5 -48
c-29.667 -31.8379 -44.5 -69.1709 -44.5 -112s14.833 -80.1621 44.5 -112c29.8184 -32 66.6514 -48 110.5 -48s80.6816 16 110.5 48c29.667 31.8379 44.5 69.1709 44.5 112z" />
    <glyph glyph-name="c" unicode="c" horiz-adv-x="521" 
d="M486 282l-76 -0.00195312c-12 28 -30.667 50.667 -56 68s-51 26 -77 26s-48.333 -4.16699 -67 -12.5s-34.834 -19.666 -48.501 -33.999c-29.667 -31.1143 -44.5 -67.6143 -44.5 -109.5c0 -42.5527 14.833 -79.3857 44.5 -110.5c29.5586 -31 65.7256 -46.5 108.501 -46.5
c28 0 53.833 7.33301 77.5 22s42.167 34.334 55.5 59.001h79c-24.8613 -70.4414 -72.5283 -117.941 -143 -142.5c-22 -7.66699 -47 -11.5 -75 -11.5s-55.667 6.16699 -83 18.5s-51 29 -71 50c-43.333 45.5 -65 99.333 -65 161.5c0 62.5557 21.667 116.223 65 161
c43.8711 45.333 97.2041 68 160 68c50.4092 0 95.9092 -15.667 136.5 -47c39.1787 -30.2432 65.6787 -70.2432 79.5 -120z" />
    <glyph glyph-name="d" unicode="d" 
d="M425 220c0 42.8291 -14.833 80.1621 -44.5 112c-29.8184 32 -66.6514 48 -110.5 48s-80.6816 -16 -110.5 -48c-29.667 -31.8379 -44.5 -69.1709 -44.5 -112s14.833 -80.1621 44.5 -112c29.8184 -32 66.6514 -48 110.5 -48s80.6816 16 110.5 48
c29.667 31.8379 44.5 69.1709 44.5 112zM495 0l-70 0.00195312v75.1348c-3.92578 -5.14062 -8.09277 -10.1855 -12.5 -15.1348c-41.5625 -46.667 -92.7295 -70 -153.5 -70s-111.938 23.333 -153.5 70c-40.333 45.2861 -60.5 98.6191 -60.5 159.999
s20.167 114.713 60.5 159.999c41.5625 46.667 92.7295 70 153.5 70s111.938 -23.333 153.5 -70c4.40723 -4.94922 8.57422 -9.99414 12.5 -15.1348v385.135h70v-750z" />
    <glyph glyph-name="e" unicode="e" horiz-adv-x="545" 
d="M505 230l0.000976562 -37.001h-387c6.74609 -37.7783 25.0791 -68.7783 55 -93c30.4707 -24.667 64.4707 -37 102 -37c25.333 0 49.5 5.83301 72.5 17.5s42.167 27.834 57.5 48.501h80c-18.667 -42 -46.834 -75.167 -84.501 -99.5s-76 -36.5 -115 -36.5
s-72.333 6 -100 18s-52 28.333 -73 49c-45 44.2861 -67.5 98.2861 -67.5 162c0 63.333 22.5 117.5 67.5 162.5s99.167 67.5 162.5 67.5c61.5 0 115 -21.667 160.5 -65c46.333 -44.127 69.5 -96.46 69.5 -157zM431.001 252.999
c-8.0166 37.4121 -26.8496 68.4131 -56.499 93.001c-28.9414 24 -62.1084 36 -99.501 36c-57.0215 0 -102.021 -25.833 -135 -77.5c-10 -15.667 -17 -32.834 -21 -51.501h312z" />
    <glyph glyph-name="f" unicode="f" horiz-adv-x="341" 
d="M311 685h-60.001c-23.333 0 -38.666 -5.33301 -45.999 -16s-11 -23.667 -11 -39v-190h117v-65h-117v-375h-70v375h-89v65h89v170c0 44.667 10.5 79.167 31.5 103.5s56.167 36.5 105.5 36.5h50v-65z" />
    <glyph glyph-name="g" unicode="g" horiz-adv-x="576" 
d="M431 220c0 42.8291 -14.833 80.1621 -44.5 112c-29.8184 32 -66.6514 48 -110.5 48c-42.7881 0 -79.4551 -16 -110.001 -48c-30 -31.4287 -45 -68.7617 -45 -112s15 -80.5713 45 -112c30.5459 -32 67.2129 -48 110.001 -48c43.8486 0 80.6816 16 110.5 48
c29.667 31.8379 44.5 69.1709 44.5 112zM119.343 -60c6.43848 -27.333 20.4922 -51.8301 42.1592 -73.4971c31 -31 68.167 -46.5 111.5 -46.5s80.5 15.5 111.5 46.5s46.5 68.167 46.5 111.5v95.834c-3.33301 -4.55566 -7.16602 -9.16699 -11.499 -13.834
c-41.667 -46.667 -92.834 -70 -153.501 -70c-61.333 0 -112.833 23.333 -154.5 70c-40.333 45.333 -60.5 98.666 -60.5 159.999s20.167 114.666 60.5 159.999c41.667 46.667 93.167 70 154.5 70c58.667 0 109.834 -23.333 153.501 -70
c4.33301 -4.66699 8.16602 -9.27832 11.499 -13.834v73.834h70v-462c0 -62.667 -22.333 -116.334 -67 -161.001s-98.334 -67 -161.001 -67s-116.334 22.333 -161.001 67c-35.333 35.333 -56.6963 76.333 -64.0908 123h71.4336z" />
    <glyph glyph-name="h" unicode="h" horiz-adv-x="509" 
d="M145 0l-69.998 0.000976562v750h70v-385.625c14.6455 24.6426 33.3125 44.6846 56.001 60.125c24 16.333 51.667 24.5 83 24.5s56.666 -4.5 75.999 -13.5s35.666 -21.333 48.999 -37c26.667 -31.333 40 -72.5 40 -123.5v-275h-70v275c0 28.667 -6.5 53.167 -19.5 73.5
s-34.5 30.5 -64.5 30.5s-54.333 -4.83301 -73 -14.5s-33.834 -23.334 -45.501 -41.001c-21 -31.7998 -31.5 -78.2998 -31.5 -139.5v-184z" />
    <glyph glyph-name="i" unicode="i" horiz-adv-x="229" 
d="M146 592c8.66699 -8.66699 13 -19.167 13 -31.5s-4.33301 -22.833 -13 -31.5s-19.167 -13 -31.5 -13s-22.833 4.33301 -31.5 13s-13 19.167 -13 31.5s4.33301 22.833 13 31.5s19.167 13 31.5 13s22.833 -4.33301 31.5 -13zM150 0h-70v440h70v-440z" />
    <glyph glyph-name="j" unicode="j" horiz-adv-x="235" 
d="M165 560c0 -12.667 -4.33301 -23.334 -13 -32.001s-19.334 -13 -32.001 -13s-23.334 4.33301 -32.001 13s-13 19.334 -13 32.001s4.33301 23.334 13 32.001s19.334 13 32.001 13s23.334 -4.33301 32.001 -13s13 -19.334 13 -32.001zM155 -84
c0 -41.333 -6.83301 -73.5 -20.5 -96.5s-30 -39.5 -49 -49.5s-38.833 -14.333 -59.5 -13s-37.667 6.33301 -51 15v67c8.66699 -8 19.167 -13.5 31.5 -16.5s24.333 -2.16699 36 2.5c28.333 11.333 42.5 41.333 42.5 90v525h70v-524z" />
    <glyph glyph-name="k" unicode="k" horiz-adv-x="421" 
d="M145 0h-70v750h70v-507.012l161 198.012h93l-181 -214l193 -227h-93l-173 211.135v-211.135z" />
    <glyph glyph-name="l" unicode="l" horiz-adv-x="220" 
d="M145 0h-70v750h70v-750z" />
    <glyph glyph-name="m" unicode="m" horiz-adv-x="763" 
d="M633 2l-0.00292969 275.003c0 45.5107 -14.333 77.3438 -43 95.499c-10 6.33301 -25.333 9.5 -46 9.5s-40 -6 -58 -18s-32.333 -27.333 -43 -46c-4.30957 -7.54199 -8.13867 -15.5732 -11.4873 -24.0928c0.326172 -5.51367 0.489258 -11.1494 0.489258 -16.9072v-275h-70
v275c0 45.5107 -14.333 77.3438 -43 95.499c-10 6.33301 -25.333 9.5 -46 9.5s-40 -6 -58 -18s-32.333 -27.333 -43 -46c-14.2559 -24.9482 -23.2559 -55.2432 -27 -90.8848v-225.115h-70v440h70v-70.1133c13.2217 22.4102 29.7217 40.7812 49.5 55.1133
c23 16.667 49.833 25 80.5 25s55.334 -4.83301 74.001 -14.5s34.167 -22.5 46.5 -38.5c7.24023 -9.39355 13.4033 -19.5928 18.4893 -30.5977c13.5469 23.9971 30.7168 43.5293 51.5098 58.5967c23 16.667 49.833 25 80.5 25s55.334 -4.83301 74.001 -14.5
s34.167 -22.5 46.5 -38.5c24.333 -31.5674 36.5 -72.2344 36.5 -122v-275h-70z" />
    <glyph glyph-name="n" unicode="n" horiz-adv-x="509" 
d="M379 0l0.00195312 274.999c0 28.667 -6.5 53.167 -19.5 73.5s-34.5 30.5 -64.5 30.5s-54.333 -5.66699 -73 -17s-33.834 -26.166 -45.501 -44.499c-21 -33 -31.5 -77.5 -31.5 -133.5v-184h-70v440h70v-75.625c14.6455 24.6426 33.3125 44.6846 56.001 60.125
c24 16.333 51.667 24.5 83 24.5s56.666 -4.5 75.999 -13.5s35.666 -21.333 48.999 -37c26.667 -31.333 40 -72.5 40 -123.5v-275h-70z" />
    <glyph glyph-name="o" unicode="o" horiz-adv-x="550" 
d="M435 222c0 44 -15.667 81.667 -47 113s-69 47 -113 47s-81.667 -15.667 -113 -47s-47 -69 -47 -113c0 -43.333 15.667 -80.666 47 -111.999s69 -47 113 -47s81.667 15.667 113 47s47 68.666 47 111.999zM505 222c0 -63.7139 -22.5 -117.714 -67.5 -162
c-45.3867 -44.667 -99.5537 -67 -162.5 -67s-117.113 22.333 -162.5 67c-45 44.2861 -67.5 98.2861 -67.5 162c0 63.333 22.5 117.5 67.5 162.5s99.167 67.5 162.5 67.5s117.5 -22.5 162.5 -67.5s67.5 -99.167 67.5 -162.5z" />
    <glyph glyph-name="p" unicode="p" 
d="M145 -250l-70 -0.00195312v690h70v-75.1348c3.92578 5.14062 8.09277 10.1855 12.5 15.1348c41.5625 46.667 92.7295 70 153.5 70s111.938 -23.333 153.5 -70c40.333 -45.2861 60.5 -98.6191 60.5 -159.999s-20.167 -114.713 -60.5 -159.999
c-41.5625 -46.667 -92.7295 -70 -153.5 -70s-111.938 23.333 -153.5 70c-4.40723 4.94922 -8.57422 9.99414 -12.5 15.1348v-325.135zM455 219.998c0 42.8291 -14.833 80.1621 -44.5 112c-29.8184 32 -66.6514 48 -110.5 48s-80.6816 -16 -110.5 -48
c-29.667 -31.8379 -44.5 -69.1709 -44.5 -112s14.833 -80.1621 44.5 -112c29.8184 -32 66.6514 -48 110.5 -48s80.6816 16 110.5 48c29.667 31.8379 44.5 69.1709 44.5 112z" />
    <glyph glyph-name="q" unicode="q" 
d="M425 220c0 42.8291 -14.833 80.1621 -44.5 112c-29.8184 32 -66.6514 48 -110.5 48s-80.6816 -16 -110.5 -48c-29.667 -31.8379 -44.5 -69.1709 -44.5 -112s14.833 -80.1621 44.5 -112c29.8184 -32 66.6514 -48 110.5 -48s80.6816 16 110.5 48
c29.667 31.8379 44.5 69.1709 44.5 112zM495 -250l-70 0.00195312v325.135c-3.92578 -5.14062 -8.09277 -10.1855 -12.5 -15.1348c-41.5625 -46.667 -92.7295 -70 -153.5 -70s-111.938 23.333 -153.5 70c-40.333 45.2861 -60.5 98.6191 -60.5 159.999
s20.167 114.713 60.5 159.999c41.5625 46.667 92.7295 70 153.5 70s111.938 -23.333 153.5 -70c4.40723 -4.94922 8.57422 -9.99414 12.5 -15.1348v75.1348h70v-690z" />
    <glyph glyph-name="r" unicode="r" horiz-adv-x="311" 
d="M301 349c-16.1338 14.667 -33.333 22 -51.5996 22s-33.9004 -5.16699 -46.9004 -15.5s-23.833 -23 -32.5 -38c-16.667 -28.8457 -25 -61.3457 -25 -97.5v-220h-70v440h70v-91l3 18c23.4287 54.667 59.7617 82 109 82c15.333 0 30 -3 44 -9v-91z" />
    <glyph glyph-name="s" unicode="s" horiz-adv-x="402" 
d="M138.771 62.666c17.6133 -11.7773 40.2637 -17.667 67.96 -17.667c64.0586 0 96.0879 23.9512 96.0879 71.8545c0 27.917 -22.9258 49.3398 -68.7783 64.2686c-19.3428 6.37402 -40.1562 12.2432 -62.4404 17.6074c-22.3086 5.3457 -43.2637 12.5264 -62.8643 21.542
c-22.6885 10.4346 -39.6797 23.6973 -50.9736 39.7881c-11.2949 16.0908 -16.9424 35.0527 -16.9424 56.8857c0 43.7158 15.3623 76.8018 46.0879 99.2578c30.8252 22.5293 67.4932 33.7939 110.004 33.7939c42.417 0 77.8789 -8.78418 106.385 -26.3516
c28.0996 -17.3174 46.8643 -48.2002 56.2949 -92.6484h-75.0264c-7.43457 24.5459 -18.8232 40.8418 -34.165 48.8867c-15.2012 8.0752 -33.6855 12.1133 -55.4521 12.1133c-21.7871 0 -40.5 -4.7373 -56.1387 -14.2129
c-15.9922 -9.5752 -23.9883 -24.2686 -23.9883 -44.0801c0 -19.7822 6.64355 -34.2959 19.9307 -43.541c12.9971 -9.10449 29.2021 -16.6875 48.6152 -22.749c19.3428 -6.03906 40.1562 -11.5732 62.4395 -16.6035c22.459 -5.00879 43.4883 -12.1875 63.0869 -21.5352
c45.2861 -21.6006 67.9287 -56.0918 67.9287 -103.473c0 -47.4443 -16.9717 -82.4248 -50.915 -104.94c-17.0342 -11.2998 -35.8887 -19.7754 -56.5645 -25.4268c-20.4551 -5.62402 -42.6338 -8.43555 -66.5361 -8.43555c-102.022 0 -160.624 45.333 -175.806 136h74.0469
c7.42676 -28.5186 20.001 -48.6299 37.7236 -60.334z" />
    <glyph glyph-name="t" unicode="t" horiz-adv-x="329" 
d="M20 375v65h110v171h70v-171h109v-65h-109v-375h-70v375h-110z" />
    <glyph glyph-name="u" unicode="u" horiz-adv-x="509" 
d="M379 75.3955c-32.9775 -56.2637 -81.9775 -84.3965 -147 -84.3965c-49.3477 0 -87.8516 16.25 -115.511 48.75s-41.4893 74.25 -41.4893 125.25v275h70v-275c0 -28.667 6.5 -53.167 19.5 -73.5s34.5 -30.5 64.5 -30.5c54.5664 0 93.208 17.2002 115.925 51.6006
s34.0752 82.2002 34.0752 143.4v184h70v-440h-70v75.3955z" />
    <glyph glyph-name="v" unicode="v" horiz-adv-x="425" 
d="M213 -42l-203 482h76l127 -327l126 327h76z" />
    <glyph glyph-name="w" unicode="w" horiz-adv-x="724" 
d="M505 -56l-143 355l-141 -355l-211 496h78l132 -339l142 362l142 -362l132 339h78z" />
    <glyph glyph-name="x" unicode="x" horiz-adv-x="448" 
d="M334 0l-110 171l-110 -171h-89l154 221l-154 219h89l110 -169l110 169h89l-154 -220l154 -220h-89z" />
    <glyph glyph-name="y" unicode="y" horiz-adv-x="425" 
d="M131 -250h-85l148 322l-184 368h80l141 -295l126 295h78z" />
    <glyph glyph-name="z" unicode="z" horiz-adv-x="455" 
d="M10 0l288 375h-271v65h405l-288 -375h301v-65h-435z" />
    <glyph glyph-name="braceleft" unicode="{" horiz-adv-x="380" 
d="M144 355l-0.00195312 264c0 18.667 1.5 36 4.5 52c9.66699 52.667 43.167 79 100.5 79h25.5c8.33301 0 16.833 -0.333008 25.5 -1v-50c-56.667 10.667 -85 -2 -85 -38v-313c0 -32 -7.5 -57.667 -22.5 -77s-35.833 -36.333 -62.5 -51
c11.333 -5.33301 22.166 -11.166 32.499 -17.499c35 -21.667 52.5 -50.5 52.5 -86.5v-225c0 -72.5967 28.333 -102.93 85 -91v-49c-9.33301 -0.666992 -18.166 -1 -26.499 -1h-35.5c-15.333 0 -29.666 3.83301 -42.999 11.5s-25.166 20.0361 -35.499 37.1084
c-10.333 16.9277 -15.5 46.7246 -15.5 89.3916v226c0 19.333 -6.66699 35.166 -20 47.499s-28 21.833 -44 28.5v68c42.667 16 64 48.333 64 97z" />
    <glyph glyph-name="bar" unicode="|" horiz-adv-x="290" 
d="M118 -225v950h55v-950h-55z" />
    <glyph glyph-name="braceright" unicode="}" horiz-adv-x="380" 
d="M236 355c0 -48.667 21.3311 -81 63.998 -97v-68c-16 -6.66699 -30.667 -16.167 -44 -28.5s-20 -28.166 -20 -47.499v-226c0 -42.667 -5.16699 -72.4639 -15.5 -89.3916c-10.333 -17.0723 -22.166 -29.4414 -35.499 -37.1084s-27.666 -11.5 -42.999 -11.5h-35.5
c-8.33301 0 -17.166 0.333008 -26.499 1v49c56.667 -11.9297 85 18.4033 85 91v225c0 36 17.5 64.833 52.5 86.5c10.333 6.33301 21.166 12.166 32.499 17.499c-26.667 14.667 -47.5 31.667 -62.5 51s-22.5 45 -22.5 77v313c0 36 -28.333 48.667 -85 38v50
c8.66699 0.666992 17.167 1 25.5 1h25.5c57.333 0 90.833 -26.333 100.5 -79c3 -16 4.5 -33.333 4.5 -52v-264z" />
    <glyph glyph-name="asciitilde" unicode="~" horiz-adv-x="526" 
d="M397 771l53 -33c-23.8096 -35.7139 -50.6426 -61.7139 -80.5 -78c-11 -6 -22.667 -9 -35 -9s-24.333 2.33301 -36 7s-23.334 9.66699 -35.001 15s-23.5 10.333 -35.5 15s-25.333 7 -40 7c-20 0 -40 -20 -60 -60l-52 34c10.8887 20.2227 23.4443 37.4453 37.667 51.668
c26.8887 26.8887 48.833 40.333 65.833 40.333s31.667 -2.33301 44 -7s24.333 -9.83398 36 -15.501c30.8828 -15 56.4277 -22.5 76.6348 -22.5s40.4961 18.333 60.8662 55z" />
    <glyph glyph-name="Adieresis" unicode="&#xc4;" horiz-adv-x="617" 
d="M185.023 250h247.397l-123.421 313zM607 0h-76l-72.9482 185h-298.774l-73.2773 -185h-76l299 727zM431 826c8.66699 -8.66699 13 -19.167 13 -31.5s-4.33301 -22.833 -13 -31.5s-19.334 -13 -32.001 -13s-23.167 4.33301 -31.5 13s-12.5 19.167 -12.5 31.5
s4.16699 22.833 12.5 31.5s18.833 13 31.5 13s23.334 -4.33301 32.001 -13zM249 826c8.66699 -8.66699 13 -19.167 13 -31.5s-4.33301 -22.833 -13 -31.5s-19.334 -13 -32.001 -13s-23.167 4.33301 -31.5 13s-12.5 19.167 -12.5 31.5s4.16699 22.833 12.5 31.5
s18.833 13 31.5 13s23.334 -4.33301 32.001 -13z" />
    <glyph glyph-name="Aring" unicode="&#xc5;" horiz-adv-x="617" 
d="M185.023 250h247.397l-123.421 313zM607 0l-75.999 0.00195312l-72.9482 185h-298.774l-73.2773 -185h-76l280.293 681.514c-18.708 3.29199 -35.6387 11.9541 -50.793 25.9854c-19.667 18.21 -29.5 40.71 -29.5 67.5c0 26.3955 9.83301 49.0625 29.5 68.001
c19.3848 18.667 42.2178 28 68.5 28c25.8662 0 48.6992 -9.16699 68.499 -27.5c19.667 -18.21 29.5 -41.043 29.5 -68.5c0 -26.3955 -9.83301 -49.0625 -29.5 -68.001c-13.9912 -13.4736 -30.3027 -21.9043 -48.9346 -25.293zM277.501 804.002
c-8.33301 -8 -12.499 -17.5 -12.499 -28.5s4.16699 -20.5 12.5 -28.5s18.666 -12 30.999 -12s22.5 4 30.5 12s12 17.5 12 28.5s-4.16699 20.5 -12.5 28.5s-18.5 12 -30.5 12s-22.167 -4 -30.5 -12z" />
    <glyph glyph-name="Ccedilla" unicode="&#xc7;" horiz-adv-x="729" 
d="M699 208c-25.2344 -65.0771 -66.5645 -117.575 -123.997 -157.498c-55.4424 -38.5391 -116.037 -58.666 -181.784 -60.3799l-17.2158 -36.1201c1 0.666992 9.58301 1 25.75 1s30.417 -4 42.75 -12s22.166 -18.5 29.499 -31.5c16.916 -29.9873 18.249 -61.8203 4 -95.5
c-15.2822 -36.9326 -47.6152 -58.7656 -96.999 -65.5c-45.5811 -6.21582 -91.9141 -0.0488281 -139 18.5l25 52c37.3027 -13.3223 73.1357 -18.1553 107.5 -14.5c35.165 3.74121 53.998 16.2412 56.499 37.5c6.05664 35.1279 -9.61035 55.4609 -47 61
c-14 2 -28.667 1.66699 -44 -1s-29.666 -5 -42.999 -7l43.3984 95.5938c-75.6475 9.2207 -141.447 43.0225 -197.398 101.406c-65.333 68.1738 -98 149.841 -98 245c0 47.333 8.66699 92.166 26 134.499s41.333 79.5 72 111.5c66.4443 69.333 146.777 104 240.999 104
c69.6025 0 132.936 -19.833 190 -59.5c57.0713 -39.6719 98.4043 -91.8389 123.999 -156.5h-77c-36.7881 67.4443 -91.6211 111.944 -164.5 133.5c-23.667 7 -51.167 10.5 -82.5 10.5s-63.333 -7.5 -96 -22.5s-61.167 -35.167 -85.5 -60.5
c-51.667 -53.79 -77.5 -118.79 -77.5 -195c0 -75.5439 25.833 -140.211 77.5 -194.001c53.1494 -55.333 116.982 -83 191.5 -83c50.667 0 97.167 13.333 139.5 40s75.166 62 98.499 106h77z" />
    <glyph glyph-name="Eacute" unicode="&#xc9;" horiz-adv-x="554" 
d="M479 0h-404v680h404v-65h-334v-242h324v-66h-324v-242h334v-65zM420 893l-110 -143h-56l80 143h86z" />
    <glyph glyph-name="Ntilde" unicode="&#xd1;" horiz-adv-x="602" 
d="M145 501v-501h-70v723l382 -543v500h70v-722zM138 750c-1.27637 44.6719 11.2256 79.5088 37.502 104.504c13.667 13 32.834 19.5 57.501 19.5s43 -4.16699 55 -12.5s22.167 -17.5 30.5 -27.5s16.333 -19.167 24 -27.5s17.5 -12.5 29.5 -12.5s21 1.66699 27 5
s10.333 8.16602 13 14.499c3.33301 7.91699 5 24.417 5 49.5h49c4.93262 -44.3975 -6.23438 -79.5645 -33.501 -105.501c-13.667 -13 -33.334 -19.5 -59.001 -19.5s-44.5 4.16699 -56.5 12.5s-22.167 17.666 -30.5 27.999s-16.5 19.666 -24.5 27.999s-18.667 12.5 -32 12.5
c-21.9482 0 -35.6152 -11.667 -41 -35c-2.66699 -10 -3.33398 -21.333 -2.00098 -34h-49z" />
    <glyph glyph-name="Odieresis" unicode="&#xd6;" horiz-adv-x="789" 
d="M674 342c0 76.667 -27.333 142.334 -82 197.001s-120.667 82 -198 82c-76.667 0 -142.334 -27.333 -197.001 -82s-82 -120.334 -82 -197.001c0 -77.333 27.333 -143.333 82 -198s120.334 -82 197.001 -82c77.333 0 143.333 27.333 198 82s82 120.667 82 198zM744 342
c0 -48 -9.16699 -93.333 -27.5 -136s-43.333 -79.834 -75 -111.501s-68.834 -56.667 -111.501 -75s-88 -27.5 -136 -27.5s-93.167 9.16699 -135.5 27.5s-79.333 43.333 -111 75s-56.667 68.834 -75 111.501s-27.5 88 -27.5 136s9.16699 93.333 27.5 136
s43.333 79.667 75 111s68.667 56.166 111 74.499s87.5 27.5 135.5 27.5s93.333 -9.16699 136 -27.5s79.834 -43.166 111.501 -74.499s56.667 -68.333 75 -111s27.5 -88 27.5 -136zM517 826c8.66699 -8.66699 13 -19.167 13 -31.5s-4.33301 -22.833 -13 -31.5
s-19.334 -13 -32.001 -13s-23.167 4.33301 -31.5 13s-12.5 19.167 -12.5 31.5s4.16699 22.833 12.5 31.5s18.833 13 31.5 13s23.334 -4.33301 32.001 -13zM335 826c8.66699 -8.66699 13 -19.167 13 -31.5s-4.33301 -22.833 -13 -31.5s-19.334 -13 -32.001 -13
s-23.167 4.33301 -31.5 13s-12.5 19.167 -12.5 31.5s4.16699 22.833 12.5 31.5s18.833 13 31.5 13s23.334 -4.33301 32.001 -13z" />
    <glyph glyph-name="Udieresis" unicode="&#xdc;" horiz-adv-x="627" 
d="M567 225c0 -73.6475 -24 -131.646 -72 -173.999c-45.333 -40 -105.666 -60 -180.999 -60c-76 0 -136.667 20 -182 60c-48 42.3525 -72 100.353 -72 174v455h70v-465c0 -51.0986 18.5 -90.4316 55.5 -118c32.21 -24 75.043 -36 128.499 -36c83.0342 0 139.034 28 168 84
c10 19.333 15 42.666 15 69.999v465h70v-455zM437 826.001c8.66699 -8.66699 13 -19.167 13 -31.5s-4.33301 -22.833 -13 -31.5s-19.334 -13 -32.001 -13s-23.167 4.33301 -31.5 13s-12.5 19.167 -12.5 31.5s4.16699 22.833 12.5 31.5s18.833 13 31.5 13
s23.334 -4.33301 32.001 -13zM255 826.001c8.66699 -8.66699 13 -19.167 13 -31.5s-4.33301 -22.833 -13 -31.5s-19.334 -13 -32.001 -13s-23.167 4.33301 -31.5 13s-12.5 19.167 -12.5 31.5s4.16699 22.833 12.5 31.5s18.833 13 31.5 13s23.334 -4.33301 32.001 -13z" />
    <glyph glyph-name="aacute" unicode="&#xe1;" 
d="M425 220c0 42.8291 -14.833 80.1621 -44.5 111.999c-29.8184 32 -66.6514 48 -110.5 48s-80.6816 -16 -110.5 -48c-29.667 -31.8369 -44.5 -69.1699 -44.5 -111.999s14.833 -80.1621 44.5 -111.999c29.8184 -32 66.6514 -48 110.5 -48s80.6816 16 110.5 48
c29.667 31.8369 44.5 69.1699 44.5 111.999zM495 0l-70 0.00195312v75.1348c-3.92578 -5.1416 -8.09277 -10.1865 -12.5 -15.1348c-41.5625 -46.667 -92.7295 -70 -153.5 -70s-111.938 23.333 -153.5 70c-40.333 45.2861 -60.5 98.6191 -60.5 159.999
s20.167 114.713 60.5 159.999c41.5625 46.667 92.7295 70 153.5 70s111.938 -23.333 153.5 -70c4.40723 -4.94824 8.57422 -9.99316 12.5 -15.1348v75.1348h70v-440zM378 681.002l-110 -143h-56l80 143h86z" />
    <glyph glyph-name="agrave" unicode="&#xe0;" 
d="M425 220c0 42.8291 -14.833 80.1621 -44.5 111.999c-29.8184 32 -66.6514 48 -110.5 48s-80.6816 -16 -110.5 -48c-29.667 -31.8369 -44.5 -69.1699 -44.5 -111.999s14.833 -80.1621 44.5 -111.999c29.8184 -32 66.6514 -48 110.5 -48s80.6816 16 110.5 48
c29.667 31.8369 44.5 69.1699 44.5 111.999zM495 0l-70 0.00195312v75.1348c-3.92578 -5.1416 -8.09277 -10.1865 -12.5 -15.1348c-41.5625 -46.667 -92.7295 -70 -153.5 -70s-111.938 23.333 -153.5 70c-40.333 45.2861 -60.5 98.6191 -60.5 159.999
s20.167 114.713 60.5 159.999c41.5625 46.667 92.7295 70 153.5 70s111.938 -23.333 153.5 -70c4.40723 -4.94824 8.57422 -9.99316 12.5 -15.1348v75.1348h70v-440zM304 517.002h-56l-110 143h76z" />
    <glyph glyph-name="acircumflex" unicode="&#xe2;" 
d="M425 220c0 42.8291 -14.833 80.1621 -44.5 111.999c-29.8184 32 -66.6514 48 -110.5 48s-80.6816 -16 -110.5 -48c-29.667 -31.8369 -44.5 -69.1699 -44.5 -111.999s14.833 -80.1621 44.5 -111.999c29.8184 -32 66.6514 -48 110.5 -48s80.6816 16 110.5 48
c29.667 31.8369 44.5 69.1699 44.5 111.999zM495 0l-70 0.00195312v75.1348c-3.92578 -5.1416 -8.09277 -10.1865 -12.5 -15.1348c-41.5625 -46.667 -92.7295 -70 -153.5 -70s-111.938 23.333 -153.5 70c-40.333 45.2861 -60.5 98.6191 -60.5 159.999
s20.167 114.713 60.5 159.999c41.5625 46.667 92.7295 70 153.5 70s111.938 -23.333 153.5 -70c4.40723 -4.94824 8.57422 -9.99316 12.5 -15.1348v75.1348h70v-440zM265 623.002l-72 -106h-71l110 143h66l110 -143h-71z" />
    <glyph glyph-name="adieresis" unicode="&#xe4;" 
d="M425 220c0 42.8291 -14.833 80.1621 -44.5 111.999c-29.8184 32 -66.6514 48 -110.5 48s-80.6816 -16 -110.5 -48c-29.667 -31.8369 -44.5 -69.1699 -44.5 -111.999s14.833 -80.1621 44.5 -111.999c29.8184 -32 66.6514 -48 110.5 -48s80.6816 16 110.5 48
c29.667 31.8369 44.5 69.1699 44.5 111.999zM495 0l-70 0.00195312v75.1348c-3.92578 -5.1416 -8.09277 -10.1865 -12.5 -15.1348c-41.5625 -46.667 -92.7295 -70 -153.5 -70s-111.938 23.333 -153.5 70c-40.333 45.2861 -60.5 98.6191 -60.5 159.999
s20.167 114.713 60.5 159.999c41.5625 46.667 92.7295 70 153.5 70s111.938 -23.333 153.5 -70c4.40723 -4.94824 8.57422 -9.99316 12.5 -15.1348v75.1348h70v-440zM379 593.002c8.66699 -8.66699 13 -19.167 13 -31.5s-4.33301 -22.833 -13 -31.5s-19.334 -13 -32.001 -13
s-23.167 4.33301 -31.5 13s-12.5 19.167 -12.5 31.5s4.16699 22.833 12.5 31.5s18.833 13 31.5 13s23.334 -4.33301 32.001 -13zM197 593.002c8.66699 -8.66699 13 -19.167 13 -31.5s-4.33301 -22.833 -13 -31.5s-19.334 -13 -32.001 -13s-23.167 4.33301 -31.5 13
s-12.5 19.167 -12.5 31.5s4.16699 22.833 12.5 31.5s18.833 13 31.5 13s23.334 -4.33301 32.001 -13z" />
    <glyph glyph-name="atilde" unicode="&#xe3;" 
d="M425 220c0 42.8291 -14.833 80.1621 -44.5 111.999c-29.8184 32 -66.6514 48 -110.5 48s-80.6816 -16 -110.5 -48c-29.667 -31.8369 -44.5 -69.1699 -44.5 -111.999s14.833 -80.1621 44.5 -111.999c29.8184 -32 66.6514 -48 110.5 -48s80.6816 16 110.5 48
c29.667 31.8369 44.5 69.1699 44.5 111.999zM495 0l-70 0.00195312v75.1348c-3.92578 -5.1416 -8.09277 -10.1865 -12.5 -15.1348c-41.5625 -46.667 -92.7295 -70 -153.5 -70s-111.938 23.333 -153.5 70c-40.333 45.2861 -60.5 98.6191 -60.5 159.999
s20.167 114.713 60.5 159.999c41.5625 46.667 92.7295 70 153.5 70s111.938 -23.333 153.5 -70c4.40723 -4.94824 8.57422 -9.99316 12.5 -15.1348v75.1348h70v-440zM105 518.002c-1.27637 44.6719 11.2256 79.5088 37.502 104.504c13.667 13 32.834 19.5 57.501 19.5
s43 -4.16699 55 -12.5s22.167 -17.5 30.5 -27.5s16.333 -19.167 24 -27.5s17.5 -12.5 29.5 -12.5s21 1.66699 27 5s10.333 8.16602 13 14.499c3.33301 7.91699 5 24.417 5 49.5h49c4.93262 -44.3975 -6.23438 -79.5645 -33.501 -105.501
c-13.667 -13 -33.334 -19.5 -59.001 -19.5s-44.5 4.16699 -56.5 12.5s-22.167 17.666 -30.5 27.999s-16.5 19.666 -24.5 27.999s-18.667 12.5 -32 12.5c-21.9482 0 -35.6152 -11.667 -41 -35c-2.66699 -10 -3.33398 -21.333 -2.00098 -34h-49z" />
    <glyph glyph-name="aring" unicode="&#xe5;" 
d="M425 220c0 42.8291 -14.833 80.1621 -44.5 111.999c-29.8184 32 -66.6514 48 -110.5 48s-80.6816 -16 -110.5 -48c-29.667 -31.8369 -44.5 -69.1699 -44.5 -111.999s14.833 -80.1621 44.5 -111.999c29.8184 -32 66.6514 -48 110.5 -48s80.6816 16 110.5 48
c29.667 31.8369 44.5 69.1699 44.5 111.999zM495 0l-70 0.00195312v75.1348c-3.92578 -5.1416 -8.09277 -10.1865 -12.5 -15.1348c-41.5625 -46.667 -92.7295 -70 -153.5 -70s-111.938 23.333 -153.5 70c-40.333 45.2861 -60.5 98.6191 -60.5 159.999
s20.167 114.713 60.5 159.999c41.5625 46.667 92.7295 70 153.5 70s111.938 -23.333 153.5 -70c4.40723 -4.94824 8.57422 -9.99316 12.5 -15.1348v75.1348h70v-440zM224.5 625.002c-8.33301 -8 -12.499 -17.5 -12.499 -28.5s4.16699 -20.5 12.5 -28.5
s18.666 -12 30.999 -12s22.5 4 30.5 12s12 17.5 12 28.5s-4.16699 20.5 -12.5 28.5s-18.5 12 -30.5 12s-22.167 -4 -30.5 -12zM157.001 596.002c0 26.3955 9.83301 49.0625 29.5 68.001c19.3848 18.667 42.2178 28 68.5 28c25.8662 0 48.6992 -9.16699 68.499 -27.5
c19.667 -18.21 29.5 -41.043 29.5 -68.5c0 -26.3955 -9.83301 -49.0625 -29.5 -68.001c-18.6924 -18 -41.5254 -27 -68.5 -27c-25.8662 0 -48.6992 9.16699 -68.499 27.5c-19.667 18.21 -29.5 40.71 -29.5 67.5z" />
    <glyph glyph-name="ccedilla" unicode="&#xe7;" horiz-adv-x="521" 
d="M486 282l-75.998 -0.00292969c-12 28 -30.667 50.667 -56 68s-51 26 -77 26s-48.333 -4.16699 -67 -12.5s-34.834 -19.666 -48.501 -33.999c-29.667 -31.1143 -44.5 -67.6143 -44.5 -109.5c0 -42.5527 14.833 -79.3857 44.5 -110.5
c29.5576 -31 65.7246 -46.5 108.5 -46.5c28 0 53.833 7.33301 77.5 22s42.167 34.334 55.5 59.001h79c-24.8623 -70.4424 -72.5293 -117.942 -143.001 -142.5c-14.1406 -4.92773 -29.5215 -8.27148 -46.1416 -10.0322l-17.8584 -37.4678c1 0.666992 9.58301 1 25.75 1
s30.417 -4 42.75 -12s22.166 -18.5 29.499 -31.5c16.916 -29.9873 18.249 -61.8203 4 -95.5c-15.2822 -36.9326 -47.6152 -58.7656 -96.999 -65.5c-45.5811 -6.21582 -91.9141 -0.0488281 -139 18.5l25 52c37.3027 -13.3223 73.1357 -18.1553 107.5 -14.5
c35.165 3.74121 53.998 16.2412 56.499 37.5c6.05664 35.1279 -9.61035 55.4609 -47 61c-14 2 -28.667 1.66699 -44 -1s-29.666 -5 -42.999 -7l42.9717 94.6543c-19.4873 2.58496 -38.8115 8.2002 -57.9717 16.8457c-27.333 12.333 -51 29 -71 50
c-43.333 45.5 -65 99.333 -65 161.5c0 62.5557 21.667 116.223 65 161.001c43.8711 45.333 97.2041 68 160 68c50.4092 0 95.9092 -15.667 136.5 -47c39.1787 -30.2432 65.6787 -70.2432 79.5 -120z" />
    <glyph glyph-name="eacute" unicode="&#xe9;" horiz-adv-x="550" 
d="M505 230l0.000976562 -37.001h-387c6.74609 -37.7783 25.0791 -68.7783 55 -93c30.4707 -24.667 64.4707 -37 102 -37c25.333 0 49.5 5.83301 72.5 17.5s42.167 27.834 57.5 48.501h80c-18.667 -42 -46.834 -75.167 -84.501 -99.5s-76 -36.5 -115 -36.5
s-72.333 6 -100 18s-52 28.333 -73 49c-45 44.2861 -67.5 98.2861 -67.5 162c0 63.333 22.5 117.5 67.5 162.5s99.167 67.5 162.5 67.5c61.5 0 115 -21.667 160.5 -65c46.333 -44.127 69.5 -96.46 69.5 -157zM431.001 252.999
c-8.0166 37.4121 -26.8506 68.4131 -56.5 93.001c-28.9414 24 -62.1084 36 -99.5 36c-57.0215 0 -102.021 -25.833 -135 -77.5c-10 -15.667 -17 -32.834 -21 -51.501h312zM408 681l-110 -143h-56l80 143h86z" />
    <glyph glyph-name="egrave" unicode="&#xe8;" horiz-adv-x="550" 
d="M505 230l0.000976562 -37.001h-387c6.74609 -37.7783 25.0791 -68.7783 55 -93c30.4707 -24.667 64.4707 -37 102 -37c25.333 0 49.5 5.83301 72.5 17.5s42.167 27.834 57.5 48.501h80c-18.667 -42 -46.834 -75.167 -84.501 -99.5s-76 -36.5 -115 -36.5
s-72.333 6 -100 18s-52 28.333 -73 49c-45 44.2861 -67.5 98.2861 -67.5 162c0 63.333 22.5 117.5 67.5 162.5s99.167 67.5 162.5 67.5c61.5 0 115 -21.667 160.5 -65c46.333 -44.127 69.5 -96.46 69.5 -157zM431.001 252.999
c-8.0166 37.4121 -26.8506 68.4131 -56.5 93.001c-28.9414 24 -62.1084 36 -99.5 36c-57.0215 0 -102.021 -25.833 -135 -77.5c-10 -15.667 -17 -32.834 -21 -51.501h312zM314 517h-56l-110 143h76z" />
    <glyph glyph-name="ecircumflex" unicode="&#xea;" horiz-adv-x="550" 
d="M505 230l0.000976562 -37.001h-387c6.74609 -37.7783 25.0791 -68.7783 55 -93c30.4707 -24.667 64.4707 -37 102 -37c25.333 0 49.5 5.83301 72.5 17.5s42.167 27.834 57.5 48.501h80c-18.667 -42 -46.834 -75.167 -84.501 -99.5s-76 -36.5 -115 -36.5
s-72.333 6 -100 18s-52 28.333 -73 49c-45 44.2861 -67.5 98.2861 -67.5 162c0 63.333 22.5 117.5 67.5 162.5s99.167 67.5 162.5 67.5c61.5 0 115 -21.667 160.5 -65c46.333 -44.127 69.5 -96.46 69.5 -157zM431.001 252.999
c-8.0166 37.4121 -26.8506 68.4131 -56.5 93.001c-28.9414 24 -62.1084 36 -99.5 36c-57.0215 0 -102.021 -25.833 -135 -77.5c-10 -15.667 -17 -32.834 -21 -51.501h312zM275 623l-72 -106h-71l110 143h66l110 -143h-71z" />
    <glyph glyph-name="edieresis" unicode="&#xeb;" horiz-adv-x="550" 
d="M505 230l0.000976562 -37.001h-387c6.74609 -37.7783 25.0791 -68.7783 55 -93c30.4707 -24.667 64.4707 -37 102 -37c25.333 0 49.5 5.83301 72.5 17.5s42.167 27.834 57.5 48.501h80c-18.667 -42 -46.834 -75.167 -84.501 -99.5s-76 -36.5 -115 -36.5
s-72.333 6 -100 18s-52 28.333 -73 49c-45 44.2861 -67.5 98.2861 -67.5 162c0 63.333 22.5 117.5 67.5 162.5s99.167 67.5 162.5 67.5c61.5 0 115 -21.667 160.5 -65c46.333 -44.127 69.5 -96.46 69.5 -157zM431.001 252.999
c-8.0166 37.4121 -26.8506 68.4131 -56.5 93.001c-28.9414 24 -62.1084 36 -99.5 36c-57.0215 0 -102.021 -25.833 -135 -77.5c-10 -15.667 -17 -32.834 -21 -51.501h312zM399 593c8.66699 -8.66699 13 -19.167 13 -31.5s-4.33301 -22.833 -13 -31.5
s-19.334 -13 -32.001 -13s-23.167 4.33301 -31.5 13s-12.5 19.167 -12.5 31.5s4.16699 22.833 12.5 31.5s18.833 13 31.5 13s23.334 -4.33301 32.001 -13zM217 593c8.66699 -8.66699 13 -19.167 13 -31.5s-4.33301 -22.833 -13 -31.5s-19.334 -13 -32.001 -13
s-23.167 4.33301 -31.5 13s-12.5 19.167 -12.5 31.5s4.16699 22.833 12.5 31.5s18.833 13 31.5 13s23.334 -4.33301 32.001 -13z" />
    <glyph glyph-name="iacute" unicode="&#xed;" horiz-adv-x="229" 
d="M150 0h-70v440h70v-440zM265 681l-110 -143h-56l80 143h86z" />
    <glyph glyph-name="igrave" unicode="&#xec;" horiz-adv-x="229" 
d="M150 0h-70v440h70v-440zM144 517h-56l-110 143h76z" />
    <glyph glyph-name="icircumflex" unicode="&#xee;" horiz-adv-x="229" 
d="M150 0h-70v440h70v-440zM115 623l-72 -106h-71l110 143h66l110 -143h-71z" />
    <glyph glyph-name="idieresis" unicode="&#xef;" horiz-adv-x="229" 
d="M150 0h-70v440h70v-440zM239 593c8.66699 -8.66699 13 -19.167 13 -31.5s-4.33301 -22.833 -13 -31.5s-19.334 -13 -32.001 -13s-23.167 4.33301 -31.5 13s-12.5 19.167 -12.5 31.5s4.16699 22.833 12.5 31.5s18.833 13 31.5 13s23.334 -4.33301 32.001 -13zM57 593
c8.66699 -8.66699 13 -19.167 13 -31.5s-4.33301 -22.833 -13 -31.5s-19.334 -13 -32.001 -13s-23.167 4.33301 -31.5 13s-12.5 19.167 -12.5 31.5s4.16699 22.833 12.5 31.5s18.833 13 31.5 13s23.334 -4.33301 32.001 -13z" />
    <glyph glyph-name="ntilde" unicode="&#xf1;" horiz-adv-x="509" 
d="M379 0l0.00195312 274.999c0 28.667 -6.5 53.167 -19.5 73.5s-34.5 30.5 -64.5 30.5s-54.333 -5.66699 -73 -17s-33.834 -26.166 -45.501 -44.499c-21 -33 -31.5 -77.5 -31.5 -133.5v-184h-70v440h70v-75.625c14.6455 24.6426 33.3125 44.6846 56.001 60.125
c24 16.333 51.667 24.5 83 24.5s56.666 -4.5 75.999 -13.5s35.666 -21.333 48.999 -37c26.667 -31.333 40 -72.5 40 -123.5v-275h-70zM90.002 517.999c-1.27637 44.6719 11.2256 79.5088 37.502 104.504c13.667 13 32.834 19.5 57.501 19.5s43 -4.16699 55 -12.5
s22.167 -17.5 30.5 -27.5s16.333 -19.167 24 -27.5s17.5 -12.5 29.5 -12.5s21 1.66699 27 5s10.333 8.16602 13 14.499c3.33301 7.91699 5 24.417 5 49.5h49c4.93262 -44.3975 -6.23438 -79.5645 -33.501 -105.501c-13.667 -13 -33.334 -19.5 -59.001 -19.5
s-44.5 4.16699 -56.5 12.5s-22.167 17.666 -30.5 27.999s-16.5 19.666 -24.5 27.999s-18.667 12.5 -32 12.5c-21.9482 0 -35.6152 -11.667 -41 -35c-2.66699 -10 -3.33398 -21.333 -2.00098 -34h-49z" />
    <glyph glyph-name="oacute" unicode="&#xf3;" horiz-adv-x="550" 
d="M435 222c0 44 -15.667 81.667 -47 113s-69 47 -113 47s-81.667 -15.667 -113 -47s-47 -69 -47 -113c0 -43.333 15.667 -80.666 47 -111.999s69 -47 113 -47s81.667 15.667 113 47s47 68.666 47 111.999zM505 222c0 -63.7139 -22.498 -117.714 -67.498 -162
c-45.3877 -44.667 -99.5547 -67 -162.501 -67s-117.113 22.333 -162.501 67c-45 44.2861 -67.5 98.2861 -67.5 162c0 63.333 22.5 117.5 67.5 162.5s99.167 67.5 162.5 67.5s117.5 -22.5 162.5 -67.5s67.5 -99.167 67.5 -162.5zM418.002 681l-110 -143h-56l80 143h86z" />
    <glyph glyph-name="ograve" unicode="&#xf2;" horiz-adv-x="550" 
d="M435 222c0 44 -15.667 81.667 -47 113s-69 47 -113 47s-81.667 -15.667 -113 -47s-47 -69 -47 -113c0 -43.333 15.667 -80.666 47 -111.999s69 -47 113 -47s81.667 15.667 113 47s47 68.666 47 111.999zM505 222c0 -63.7139 -22.498 -117.714 -67.498 -162
c-45.3877 -44.667 -99.5547 -67 -162.501 -67s-117.113 22.333 -162.501 67c-45 44.2861 -67.5 98.2861 -67.5 162c0 63.333 22.5 117.5 67.5 162.5s99.167 67.5 162.5 67.5s117.5 -22.5 162.5 -67.5s67.5 -99.167 67.5 -162.5zM313.002 517h-56l-110 143h76z" />
    <glyph glyph-name="ocircumflex" unicode="&#xf4;" horiz-adv-x="550" 
d="M435 222c0 44 -15.667 81.667 -47 113s-69 47 -113 47s-81.667 -15.667 -113 -47s-47 -69 -47 -113c0 -43.333 15.667 -80.666 47 -111.999s69 -47 113 -47s81.667 15.667 113 47s47 68.666 47 111.999zM505 222c0 -63.7139 -22.498 -117.714 -67.498 -162
c-45.3877 -44.667 -99.5547 -67 -162.501 -67s-117.113 22.333 -162.501 67c-45 44.2861 -67.5 98.2861 -67.5 162c0 63.333 22.5 117.5 67.5 162.5s99.167 67.5 162.5 67.5s117.5 -22.5 162.5 -67.5s67.5 -99.167 67.5 -162.5zM275.002 623l-72 -106h-71l110 143h66
l110 -143h-71z" />
    <glyph glyph-name="odieresis" unicode="&#xf6;" horiz-adv-x="550" 
d="M435 222c0 44 -15.667 81.667 -47 113s-69 47 -113 47s-81.667 -15.667 -113 -47s-47 -69 -47 -113c0 -43.333 15.667 -80.666 47 -111.999s69 -47 113 -47s81.667 15.667 113 47s47 68.666 47 111.999zM505 222c0 -63.7139 -22.498 -117.714 -67.498 -162
c-45.3877 -44.667 -99.5547 -67 -162.501 -67s-117.113 22.333 -162.501 67c-45 44.2861 -67.5 98.2861 -67.5 162c0 63.333 22.5 117.5 67.5 162.5s99.167 67.5 162.5 67.5s117.5 -22.5 162.5 -67.5s67.5 -99.167 67.5 -162.5zM399.002 593
c8.66699 -8.66699 13 -19.167 13 -31.5s-4.33301 -22.833 -13 -31.5s-19.334 -13 -32.001 -13s-23.167 4.33301 -31.5 13s-12.5 19.167 -12.5 31.5s4.16699 22.833 12.5 31.5s18.833 13 31.5 13s23.334 -4.33301 32.001 -13zM217.002 593
c8.66699 -8.66699 13 -19.167 13 -31.5s-4.33301 -22.833 -13 -31.5s-19.334 -13 -32.001 -13s-23.167 4.33301 -31.5 13s-12.5 19.167 -12.5 31.5s4.16699 22.833 12.5 31.5s18.833 13 31.5 13s23.334 -4.33301 32.001 -13z" />
    <glyph glyph-name="otilde" unicode="&#xf5;" horiz-adv-x="550" 
d="M435 222c0 44 -15.667 81.667 -47 113s-69 47 -113 47s-81.667 -15.667 -113 -47s-47 -69 -47 -113c0 -43.333 15.667 -80.666 47 -111.999s69 -47 113 -47s81.667 15.667 113 47s47 68.666 47 111.999zM505 222c0 -63.7139 -22.498 -117.714 -67.498 -162
c-45.3877 -44.667 -99.5547 -67 -162.501 -67s-117.113 22.333 -162.501 67c-45 44.2861 -67.5 98.2861 -67.5 162c0 63.333 22.5 117.5 67.5 162.5s99.167 67.5 162.5 67.5s117.5 -22.5 162.5 -67.5s67.5 -99.167 67.5 -162.5zM110.002 518
c-1.27637 44.6719 11.2256 79.5088 37.502 104.504c13.667 13 32.834 19.5 57.501 19.5s43 -4.16699 55 -12.5s22.167 -17.5 30.5 -27.5s16.333 -19.167 24 -27.5s17.5 -12.5 29.5 -12.5s21 1.66699 27 5s10.333 8.16602 13 14.499c3.33301 7.91699 5 24.417 5 49.5h49
c4.93262 -44.3975 -6.23438 -79.5645 -33.501 -105.501c-13.667 -13 -33.334 -19.5 -59.001 -19.5s-44.5 4.16699 -56.5 12.5s-22.167 17.666 -30.5 27.999s-16.5 19.666 -24.5 27.999s-18.667 12.5 -32 12.5c-21.9482 0 -35.6152 -11.667 -41 -35
c-2.66699 -10 -3.33398 -21.333 -2.00098 -34h-49z" />
    <glyph glyph-name="uacute" unicode="&#xfa;" horiz-adv-x="509" 
d="M379 75.3955c-32.9775 -56.2637 -81.9775 -84.3955 -147 -84.3955c-49.3477 0 -87.8516 16.25 -115.511 48.75s-41.4893 74.25 -41.4893 125.25v275h70v-275c0 -28.667 6.5 -53.167 19.5 -73.5s34.5 -30.5 64.5 -30.5c54.5654 0 93.207 17.2002 115.925 51.5996
c22.7168 34.4004 34.0752 82.2002 34.0752 143.4v184h70v-440h-70v75.3955zM405 681l-110 -143h-56l80 143h86z" />
    <glyph glyph-name="ugrave" unicode="&#xf9;" horiz-adv-x="509" 
d="M379 75.3955c-32.9775 -56.2637 -81.9775 -84.3955 -147 -84.3955c-49.3477 0 -87.8516 16.25 -115.511 48.75s-41.4893 74.25 -41.4893 125.25v275h70v-275c0 -28.667 6.5 -53.167 19.5 -73.5s34.5 -30.5 64.5 -30.5c54.5654 0 93.207 17.2002 115.925 51.5996
c22.7168 34.4004 34.0752 82.2002 34.0752 143.4v184h70v-440h-70v75.3955zM293 517h-56l-110 143h76z" />
    <glyph glyph-name="ucircumflex" unicode="&#xfb;" horiz-adv-x="509" 
d="M379 75.3955c-32.9775 -56.2637 -81.9775 -84.3955 -147 -84.3955c-49.3477 0 -87.8516 16.25 -115.511 48.75s-41.4893 74.25 -41.4893 125.25v275h70v-275c0 -28.667 6.5 -53.167 19.5 -73.5s34.5 -30.5 64.5 -30.5c54.5654 0 93.207 17.2002 115.925 51.5996
c22.7168 34.4004 34.0752 82.2002 34.0752 143.4v184h70v-440h-70v75.3955zM255 623l-72 -106h-71l110 143h66l110 -143h-71z" />
    <glyph glyph-name="udieresis" unicode="&#xfc;" horiz-adv-x="509" 
d="M379 75.3955c-32.9775 -56.2637 -81.9775 -84.3955 -147 -84.3955c-49.3477 0 -87.8516 16.25 -115.511 48.75s-41.4893 74.25 -41.4893 125.25v275h70v-275c0 -28.667 6.5 -53.167 19.5 -73.5s34.5 -30.5 64.5 -30.5c54.5654 0 93.207 17.2002 115.925 51.5996
c22.7168 34.4004 34.0752 82.2002 34.0752 143.4v184h70v-440h-70v75.3955zM379 593c8.66699 -8.66699 13 -19.167 13 -31.5s-4.33301 -22.833 -13 -31.5s-19.334 -13 -32.001 -13s-23.167 4.33301 -31.5 13s-12.5 19.167 -12.5 31.5s4.16699 22.833 12.5 31.5
s18.833 13 31.5 13s23.334 -4.33301 32.001 -13zM197 593c8.66699 -8.66699 13 -19.167 13 -31.5s-4.33301 -22.833 -13 -31.5s-19.334 -13 -32.001 -13s-23.167 4.33301 -31.5 13s-12.5 19.167 -12.5 31.5s4.16699 22.833 12.5 31.5s18.833 13 31.5 13
s23.334 -4.33301 32.001 -13z" />
    <glyph glyph-name="degree" unicode="&#xb0;" horiz-adv-x="460" 
d="M325 532c0 41.5742 -16.332 70.0723 -48.999 85.498c-12 5.66699 -27.333 8.5 -46 8.5c-33.4316 0 -58.4316 -10.167 -75 -30.5c-13.333 -16.3633 -20 -37.5303 -20 -63.5c0 -27.4541 5 -47.3174 15 -59.5898s21 -21.0752 33 -26.4082s27.5 -8 46.5 -8
s34.667 2.66699 47 8s22.166 12.5 29.499 21.5c12.667 15.5459 19 37.0459 19 64.5zM395.001 532.498c0 -22.333 -4.16699 -42.666 -12.5 -60.999s-19.833 -34 -34.5 -47c-30.4619 -27 -69.7949 -40.5 -118 -40.5s-87.5381 13.5 -118 40.5
c-31.333 27.7725 -47 63.9395 -47 108.5c0 43.3027 16 79.1357 48 107.499c31.2139 27.667 70.2139 41.5 117 41.5s85.7861 -13.833 117 -41.5c32 -28.3633 48 -64.3633 48 -108z" />
    <glyph glyph-name="bullet" unicode="&#x2022;" horiz-adv-x="300" 
d="M264 342c0 -31.333 -11.167 -58.166 -33.5 -80.499s-49.166 -33.5 -80.499 -33.5s-58.166 11.167 -80.499 33.5s-33.5 49.166 -33.5 80.499s11.167 58.166 33.5 80.499s49.166 33.5 80.499 33.5s58.166 -11.167 80.499 -33.5s33.5 -49.166 33.5 -80.499z" />
    <glyph glyph-name="paragraph" unicode="&#xb6;" horiz-adv-x="520" 
d="M412 0h-43v612h-63v-612h-44v208c-62.3164 9.28125 -113.483 34.2812 -153.5 75c-40.333 41.041 -60.5 90.708 -60.5 149c0 61.7266 22.167 114.394 66.5 158c44.0557 43.333 97.2227 65 159.5 65h138v-655z" />
    <glyph glyph-name="germandbls" unicode="&#xdf;" horiz-adv-x="552" 
d="M235 0l-2.99805 66.9971h69c37.6064 0 70.9395 14.167 99.999 42.5c28.667 27.9502 43 62.1172 43 102.501c0 38.583 -14.333 70.416 -43 95.499c-27.8096 24.333 -61.1426 36.5 -100 36.5h-34v62h10c31.5957 0 58.0957 9.66699 79.5 29
c23 20.7744 34.5 46.4414 34.5 77.001c0 29.8926 -11.5 55.2256 -34.5 76c-21.4043 19.333 -48.0059 29 -79.8037 29s-56.5303 -5.83301 -74.1973 -17.5s-30.5 -27 -38.5 -46s-12.667 -40.5 -14 -64.5s-2 -48.333 -2 -73v-416h-72v441c0 79.7334 13.5 139.4 40.5 179
c31.8184 46.667 85.3184 70 160.5 70c50.0605 0 93.5605 -15.333 130.5 -46c38.333 -31.8242 57.5 -72.8242 57.5 -123c0 -30.667 -8.5 -57.5 -25.5 -80.5s-38.5 -41.167 -64.5 -54.5c40 -15.333 73.667 -38.166 101 -68.499s41 -67.833 41 -112.5
c0 -57.333 -22 -106.166 -66 -146.499c-42.5459 -39 -92.5459 -58.5 -150 -58.5h-66z" />
    <glyph glyph-name="registered" unicode="&#xae;" horiz-adv-x="747" 
d="M439 442c0 15.333 -6 27.833 -18 37.5s-25.667 14.5 -41 14.5h-47v-104h47c15.333 0 29 4.83301 41 14.5s18 22.167 18 37.5zM500 218h-59l-63 136h-45v-136h-46v313h93c27.917 0 52.75 -9 74.5 -27c20.333 -16.8271 30.5 -37.4941 30.5 -62
c0 -13.333 -4.5 -26.5 -13.5 -39.5s-26.167 -27.833 -51.5 -44.5zM636 375c0 70.4727 -25.667 130.305 -77 179.499c-51.1309 49 -113.131 73.5 -186 73.5c-72.5801 0 -134.08 -24.5 -184.5 -73.5c-51.667 -50.2109 -77.5 -110.044 -77.5 -179.499
c0 -70.1221 25.833 -130.289 77.5 -180.5c50.4199 -49 111.92 -73.5 184.5 -73.5c72.8691 0 134.869 24.5 186 73.5c51.333 49.1943 77 109.361 77 180.5zM699 374.999c0 -43.333 -8.66699 -84.166 -26 -122.499s-40.666 -71.833 -69.999 -100.5
s-63.833 -51.167 -103.5 -67.5s-81.834 -24.5 -126.501 -24.5c-89.5273 0 -166.027 30.667 -229.5 92c-29.667 28.667 -53 62.167 -70 100.5s-25.5 79.166 -25.5 122.499c0 86.4795 31.833 160.479 95.5 222c63.4727 61.333 139.973 92 229.5 92
c44.667 0 86.834 -8.16699 126.501 -24.5s74.167 -38.833 103.5 -67.5s52.666 -62 69.999 -100s26 -78.667 26 -122z" />
    <glyph glyph-name="copyright" unicode="&#xa9;" horiz-adv-x="747" 
d="M529 303c-36.1904 -63.333 -88.8574 -95 -158 -95c-47.2178 0 -88.2178 16.667 -123 50c-34 32.583 -51 71.916 -51 117.999c0 46.75 17 86.417 51 119c34.7822 33.333 75.7822 50 123 50c40.7354 0 76.5684 -11.5 107.499 -34.5
c21.4902 -15.9795 38.6572 -36.8125 51.501 -62.5h-60c-24.1572 29.333 -57.1572 44 -99 44c-32.667 0 -60.334 -11.333 -83.001 -34c-23.333 -23.333 -35 -50.666 -35 -81.999c0 -30.667 11.667 -57.667 35 -81c22.667 -22.667 52.7969 -34 90.3896 -34
s67.7969 14 90.6113 42h60zM636 375c0 70.4727 -25.667 130.305 -77 179.499c-51.1309 49 -113.131 73.5 -186 73.5c-72.5801 0 -134.08 -24.5 -184.5 -73.5c-51.667 -50.2109 -77.5 -110.044 -77.5 -179.499c0 -70.1221 25.833 -130.289 77.5 -180.5
c50.4199 -49 111.92 -73.5 184.5 -73.5c72.8691 0 134.869 24.5 186 73.5c51.333 49.1943 77 109.361 77 180.5zM699 374.999c0 -43.333 -8.66699 -84.166 -26 -122.499s-40.666 -71.833 -69.999 -100.5s-63.833 -51.167 -103.5 -67.5s-81.834 -24.5 -126.501 -24.5
c-89.5273 0 -166.027 30.667 -229.5 92c-29.667 28.667 -53.167 62.167 -70.5 100.5s-26 79.166 -26 122.499s8.66699 84 26 122s40.833 71.333 70.5 100c63.4727 61.333 139.973 92 229.5 92c44.667 0 86.834 -8.16699 126.501 -24.5s74.167 -38.833 103.5 -67.5
s52.666 -62 69.999 -100s26 -78.667 26 -122z" />
    <glyph glyph-name="trademark" unicode="&#x2122;" horiz-adv-x="779" 
d="M289 631.999h-105v-294h-56v294h-104v48h265v-48zM755 337.999h-64l-51 287l-84 -287h-60l-85 287l-50 -287h-64l67 342h76l86 -279l86 279h76z" />
    <glyph glyph-name="acute" unicode="&#xb4;" horiz-adv-x="186" 
d="M176 893l-100 -143h-56l80 143h76z" />
    <glyph glyph-name="dieresis" unicode="&#xa8;" horiz-adv-x="564" 
d="M413 826c8.66699 -8.66699 13 -19.167 13 -31.5s-4.33301 -22.833 -13 -31.5s-19.334 -13 -32.001 -13s-23.167 4.33301 -31.5 13s-12.5 19.167 -12.5 31.5s4.16699 22.833 12.5 31.5s18.833 13 31.5 13s23.334 -4.33301 32.001 -13zM231 826
c8.66699 -8.66699 13 -19.167 13 -31.5s-4.33301 -22.833 -13 -31.5s-19.334 -13 -32.001 -13s-23.167 4.33301 -31.5 13s-12.5 19.167 -12.5 31.5s4.16699 22.833 12.5 31.5s18.833 13 31.5 13s23.334 -4.33301 32.001 -13z" />
    <glyph glyph-name="AE" unicode="&#xc6;" horiz-adv-x="818" 
d="M338 582l-6 -41l-137 -304h143v345zM338 0v175h-169l-76 -175h-78l319 680h409v-72l-333 -2v-232l323 2v-72l-323 -2v-232l333 2v-72h-405z" />
    <glyph glyph-name="Oslash" unicode="&#xd8;" horiz-adv-x="789" 
d="M744 342c0 -48 -9.16602 -93.3311 -27.499 -135.998s-43.333 -79.834 -75 -111.501s-68.834 -56.667 -111.501 -75s-88 -27.5 -136 -27.5s-93.167 9.16699 -135.5 27.5c-33.3643 14.4492 -63.415 33.0391 -90.1533 55.7695l-44.3467 -44.2695l-39 39l44.2705 44.1943
c-23.1865 27.085 -42.1104 57.6865 -56.7705 91.8057c-18.333 42.667 -27.5 88 -27.5 136s9.16699 93.333 27.5 136s43.333 79.667 75 111s68.667 56.166 111 74.499s87.5 27.5 135.5 27.5s93.333 -9.16699 136 -27.5c34.3848 -14.7744 65.1973 -33.7705 92.4375 -56.9883
l42.5615 42.4883l39 -39l-42.5713 -42.498c22.4141 -26.3857 40.7715 -56.2197 55.0723 -89.502c18.333 -42.667 27.5 -88 27.5 -136zM217.978 124.816c50.248 -41.876 108.923 -62.8135 176.023 -62.8135c77.333 0 143.333 27.333 198 82s82 120.667 82 198
c0 66.9365 -20.835 125.487 -62.5059 175.653zM178.882 163.722l393.771 393.093c-50.6777 42.7939 -110.228 64.1904 -178.649 64.1904c-76.667 0 -142.334 -27.333 -197.001 -82s-82 -120.334 -82 -197.001c0 -68.2559 21.293 -127.684 63.8799 -178.282z" />
    <glyph glyph-name="ae" unicode="&#xe6;" horiz-adv-x="867" 
d="M387 119c-13.7637 26.3809 -22.0957 57.7148 -24.999 94.001v1h-197c-33.333 -17.3916 -50 -41.7393 -50 -73.0439s8.5 -53.124 25.5 -65.457s40.167 -18.5 69.5 -18.5s60.166 5.5 92.499 16.5s60.5 26.167 84.5 45.5zM748.001 258.001
c-8.66699 36.667 -27.332 66.5 -55.999 89.5s-61.834 34.5 -99.501 34.5s-71 -11.5 -100 -34.5s-47.833 -52.833 -56.5 -89.5h312zM416.003 74.001c-41.4326 -37.29 -96.4307 -63.125 -164.998 -77.502c-20.667 -4.33301 -40.834 -6.5 -60.501 -6.5s-38.667 3.33301 -57 10
s-34 16 -47 28c-27.667 25.5381 -41.5 60.2051 -41.5 104c0 32 8.66699 60 26 84s40.333 42 69 54h222v25c0 45.3164 -23.667 74.4834 -71 87.5c-13.333 3.66699 -29.5 5.5 -48.5 5.5s-39.333 -5.66699 -61 -17s-37.167 -28.333 -46.5 -51l-64 27
c15.333 36.667 39.333 63 72 79s66.5 24 101.5 24s68 -6.16699 99 -18.5s54.5 -33.5 70.5 -63.5c22 26.667 48.5 47.334 79.5 62.001s62.667 22 95 22s62.5 -5.83301 90.5 -17.5s52.5 -27.5 73.5 -47.5c46.333 -44.127 69.5 -96.46 69.5 -157v-37h-387
c6.74609 -37.7783 25.0791 -68.7783 55 -93c30.4707 -24.667 64.4707 -37 102 -37c25.333 0 49.5 5.83301 72.5 17.5s42.167 27.834 57.5 48.501h80c-18.667 -42 -46.834 -75.167 -84.501 -99.5s-76.5 -36.5 -116.5 -36.5c-77.6406 0 -139.308 27 -185 81z" />
    <glyph glyph-name="oslash" unicode="&#xf8;" horiz-adv-x="550" 
d="M505 222c0 -63.7139 -22.5 -117.714 -67.5 -162c-45.3867 -44.667 -99.5537 -67 -162.5 -67c-53.0723 0 -99.9033 15.877 -140.493 47.6299l-52.5059 -52.6299l-39 39l51.9795 52.1025c-33.3203 40.4395 -49.9805 88.0723 -49.9805 142.897
c0 63.333 22.5 117.5 67.5 162.5s99.167 67.5 162.5 67.5c54.2539 0 101.781 -16.5117 142.582 -49.5342l49.418 49.5342l39 -39l-49.5391 -49.6562c32.3594 -40.5234 48.5391 -87.6377 48.5391 -141.344zM184.625 90.8662
c26.3701 -18.5781 56.4961 -27.8662 90.376 -27.8662c44 0 81.667 15.667 113 47s47 68.666 47 111.999c0 34.2627 -9.5 64.6846 -28.499 91.2666zM145.166 129.406l222.534 223.059c-26.9199 19.6904 -57.8193 29.5352 -92.6992 29.5352c-44 0 -81.667 -15.667 -113 -47
s-47 -69 -47 -113c0 -34.7158 10.0547 -65.5801 30.165 -92.5938z" />
    <glyph glyph-name="ellipsis" unicode="&#x2026;" horiz-adv-x="667" 
d="M133 -10c-15.333 0 -28.833 5.50098 -40.5 16.501s-17.5 24.167 -17.5 39.5s5.66699 28.666 17 39.999s25 17 41 17s29.833 -5.5 41.5 -16.5s17.5 -24.333 17.5 -40s-6 -29 -18 -40s-25.667 -16.5 -41 -16.5zM333 -9.99902c-15.333 0 -28.833 5.50098 -40.5 16.501
s-17.5 24.167 -17.5 39.5s5.66699 28.666 17 39.999s25 17 41 17s29.833 -5.5 41.5 -16.5s17.5 -24.333 17.5 -40s-6 -29 -18 -40s-25.667 -16.5 -41 -16.5zM533 -9.99805c-15.333 0 -28.833 5.50098 -40.5 16.501s-17.5 24.167 -17.5 39.5s5.66699 28.666 17 39.999
s25 17 41 17s29.833 -5.5 41.5 -16.5s17.5 -24.333 17.5 -40s-6 -29 -18 -40s-25.667 -16.5 -41 -16.5z" />
    <glyph glyph-name="uni00A0" unicode="&#xa0;" horiz-adv-x="270" 
 />
    <glyph glyph-name="Agrave" unicode="&#xc0;" horiz-adv-x="617" 
d="M185.023 250h247.397l-123.421 313zM607 0h-76l-72.9482 185h-298.774l-73.2773 -185h-76l299 727zM346 750h-56l-110 143h76z" />
    <glyph glyph-name="Atilde" unicode="&#xc3;" horiz-adv-x="617" 
d="M185.023 250h247.397l-123.421 313zM607 0h-76l-72.9482 185h-298.774l-73.2773 -185h-76l299 727zM144 750c-1.27637 44.6719 11.2256 79.5088 37.502 104.504c13.667 13 32.834 19.5 57.501 19.5s43 -4.16699 55 -12.5s22.167 -17.5 30.5 -27.5
s16.333 -19.167 24 -27.5s17.5 -12.5 29.5 -12.5s21 1.66699 27 5s10.333 8.16602 13 14.499c3.33301 7.91699 5 24.417 5 49.5h49c4.93262 -44.3975 -6.23438 -79.5645 -33.501 -105.501c-13.667 -13 -33.334 -19.5 -59.001 -19.5s-44.5 4.16699 -56.5 12.5
s-22.167 17.666 -30.5 27.999s-16.5 19.666 -24.5 27.999s-18.667 12.5 -32 12.5c-21.9482 0 -35.6152 -11.667 -41 -35c-2.66699 -10 -3.33398 -21.333 -2.00098 -34h-49z" />
    <glyph glyph-name="Otilde" unicode="&#xd5;" horiz-adv-x="789" 
d="M674 342c0 76.667 -27.333 142.334 -82 197.001s-120.667 82 -198 82c-76.667 0 -142.334 -27.333 -197.001 -82s-82 -120.334 -82 -197.001c0 -77.333 27.333 -143.333 82 -198s120.334 -82 197.001 -82c77.333 0 143.333 27.333 198 82s82 120.667 82 198zM744 342
c0 -48 -9.16699 -93.333 -27.5 -136s-43.333 -79.834 -75 -111.501s-68.834 -56.667 -111.501 -75s-88 -27.5 -136 -27.5s-93.167 9.16699 -135.5 27.5s-79.333 43.333 -111 75s-56.667 68.834 -75 111.501s-27.5 88 -27.5 136s9.16699 93.333 27.5 136
s43.333 79.667 75 111s68.667 56.166 111 74.499s87.5 27.5 135.5 27.5s93.333 -9.16699 136 -27.5s79.834 -43.166 111.501 -74.499s56.667 -68.333 75 -111s27.5 -88 27.5 -136zM230 750c-1.27637 44.6719 11.2256 79.5088 37.502 104.504
c13.667 13 32.834 19.5 57.501 19.5s43 -4.16699 55 -12.5s22.167 -17.5 30.5 -27.5s16.333 -19.167 24 -27.5s17.5 -12.5 29.5 -12.5s21 1.66699 27 5s10.333 8.16602 13 14.499c3.33301 7.91699 5 24.417 5 49.5h49c4.93262 -44.3975 -6.23438 -79.5645 -33.501 -105.501
c-13.667 -13 -33.334 -19.5 -59.001 -19.5s-44.5 4.16699 -56.5 12.5s-22.167 17.666 -30.5 27.999s-16.5 19.666 -24.5 27.999s-18.667 12.5 -32 12.5c-21.9482 0 -35.6152 -11.667 -41 -35c-2.66699 -10 -3.33398 -21.333 -2.00098 -34h-49z" />
    <glyph glyph-name="OE" unicode="&#x152;" horiz-adv-x="998" 
d="M143 340c0 -77.5439 27.333 -142.209 82 -193.999c53.4814 -50.667 119.481 -76 198 -76h110v540h-110c-78.5186 0 -144.519 -25.333 -198 -76c-54.667 -51.79 -82 -116.457 -82 -194.001zM75 340.002c0 49.333 9.16699 94.833 27.5 136.5s43.166 77.5 74.499 107.5
s68.333 53.5 111 70.5s88.334 25.5 137.001 25.5l512 0.380859v-65h-334v-242h324v-66h-324v-242h334v-65h-334v-0.380859h-178c-48.667 0 -94.334 8.5 -137.001 25.5s-79.667 40.5 -111 70.5s-56.166 65.833 -74.499 107.5s-27.5 87.167 -27.5 136.5z" />
    <glyph glyph-name="oe" unicode="&#x153;" horiz-adv-x="939" 
d="M435 222c0 44 -15.667 81.667 -47 113s-69 47 -113 47s-81.667 -15.667 -113 -47s-47 -69 -47 -113c0 -43.333 15.667 -80.666 47 -111.999s69 -47 113 -47s81.667 15.667 113 47s47 68.666 47 111.999zM821 258c-9.33301 36.667 -28.167 66.5 -56.5 89.5
s-61.5 34.5 -99.5 34.5c-37.3936 0 -70.7266 -11.5 -99.999 -34.5c-29.167 -22.917 -47.834 -52.75 -56.001 -89.5h312zM469.999 100c-21.333 -33.333 -49.166 -59.501 -83.499 -78.501s-69.5 -28.5 -105.5 -28.5s-67.833 6 -95.5 18s-52 28.333 -73 49
c-45 44.2861 -67.5 98.2861 -67.5 162c0 63.333 22.5 117.5 67.5 162.5s99.167 67.5 162.5 67.5c40 0 77.167 -9.5 111.5 -28.5s62.166 -45.167 83.499 -78.5c21.333 34 49.166 60.333 83.499 79s69 28 104 28s66.5 -5.83301 94.5 -17.5s52.5 -27.5 73.5 -47.5
c45.667 -43.4922 68.5 -95.8252 68.5 -157v-37h-387c6.74609 -37.7783 25.0791 -68.7783 55 -93c30.4707 -24.667 64.8037 -37 103 -37c25.333 0 49.5 5.83301 72.5 17.5s42.167 27.834 57.5 48.501h80c-18.667 -42 -47 -75.167 -85 -99.5s-78.333 -36.5 -121 -36.5
s-81.167 9.33301 -115.5 28s-62.166 45 -83.499 79z" />
    <glyph glyph-name="endash" unicode="&#x2013;" horiz-adv-x="390" 
d="M368 180h-345v58h345v-58z" />
    <glyph glyph-name="emdash" unicode="&#x2014;" horiz-adv-x="689" 
d="M667 180h-644v58h644v-58z" />
    <glyph glyph-name="quotedblleft" unicode="&#x201c;" horiz-adv-x="361" 
d="M182 491l112 259h42l-58 -259h-96zM25 491l112 259h42l-58 -259h-96z" />
    <glyph glyph-name="quotedblright" unicode="&#x201d;" horiz-adv-x="361" 
d="M179 750l-112 -259h-42l58 259h96zM336 750l-112 -259h-42l58 259h96z" />
    <glyph glyph-name="quoteleft" unicode="&#x2018;" horiz-adv-x="204" 
d="M25 491l112 259h42l-58 -259h-96z" />
    <glyph glyph-name="quoteright" unicode="&#x2019;" horiz-adv-x="204" 
d="M179 750l-112 -259h-42l58 259h96z" />
    <glyph glyph-name="divide" unicode="&#xf7;" horiz-adv-x="410" 
d="M268 57c0 -15.333 -5.5 -28.333 -16.5 -39s-24.167 -16 -39.5 -16s-28.333 5.33301 -39 16s-16 23.667 -16 39s5.33301 28.5 16 39.5s23.667 16.5 39 16.5s28.5 -5.5 39.5 -16.5s16.5 -24.167 16.5 -39.5zM373 194h-335v57h335v-57zM268 381
c0 -15.333 -5.5 -28.333 -16.5 -39s-24.167 -16 -39.5 -16s-28.333 5.33301 -39 16s-16 23.667 -16 39s5.33301 28.5 16 39.5s23.667 16.5 39 16.5s28.5 -5.5 39.5 -16.5s16.5 -24.167 16.5 -39.5z" />
    <glyph glyph-name="ydieresis" unicode="&#xff;" horiz-adv-x="425" 
d="M131 -250h-85l148 322l-184 368h80l141 -295l126 295h78zM337 593c8.66699 -8.66699 13 -19.167 13 -31.5s-4.33301 -22.833 -13 -31.5s-19.334 -13 -32.001 -13s-23.167 4.33301 -31.5 13s-12.5 19.167 -12.5 31.5s4.16699 22.833 12.5 31.5s18.833 13 31.5 13
s23.334 -4.33301 32.001 -13zM155 593c8.66699 -8.66699 13 -19.167 13 -31.5s-4.33301 -22.833 -13 -31.5s-19.334 -13 -32.001 -13s-23.167 4.33301 -31.5 13s-12.5 19.167 -12.5 31.5s4.16699 22.833 12.5 31.5s18.833 13 31.5 13s23.334 -4.33301 32.001 -13z" />
    <glyph glyph-name="fraction" unicode="&#x2044;" horiz-adv-x="444" 
d="M399 679l-287 -679h-67l286 679h68z" />
    <glyph glyph-name="Acircumflex" unicode="&#xc2;" horiz-adv-x="617" 
d="M185.023 250h247.397l-123.421 313zM607 0h-76l-72.9482 185h-298.774l-73.2773 -185h-76l299 727zM308 856l-72 -106h-71l110 143h66l110 -143h-71z" />
    <glyph glyph-name="Ecircumflex" unicode="&#xca;" horiz-adv-x="554" 
d="M479 0h-404v680h404v-65h-334v-242h324v-66h-324v-242h334v-65zM277 856l-72 -106h-71l110 143h66l110 -143h-71z" />
    <glyph glyph-name="Aacute" unicode="&#xc1;" horiz-adv-x="617" 
d="M185.023 250h247.397l-123.421 313zM607 0h-76l-72.9482 185h-298.774l-73.2773 -185h-76l299 727zM444 893l-110 -143h-56l80 143h86z" />
    <glyph glyph-name="Edieresis" unicode="&#xcb;" horiz-adv-x="554" 
d="M479 0h-404v680h404v-65h-334v-242h324v-66h-324v-242h334v-65zM401 826c8.66699 -8.66699 13 -19.167 13 -31.5s-4.33301 -22.833 -13 -31.5s-19.334 -13 -32.001 -13s-23.167 4.33301 -31.5 13s-12.5 19.167 -12.5 31.5s4.16699 22.833 12.5 31.5s18.833 13 31.5 13
s23.334 -4.33301 32.001 -13zM219 826c8.66699 -8.66699 13 -19.167 13 -31.5s-4.33301 -22.833 -13 -31.5s-19.334 -13 -32.001 -13s-23.167 4.33301 -31.5 13s-12.5 19.167 -12.5 31.5s4.16699 22.833 12.5 31.5s18.833 13 31.5 13s23.334 -4.33301 32.001 -13z" />
    <glyph glyph-name="Egrave" unicode="&#xc8;" horiz-adv-x="554" 
d="M479 0h-404v680h404v-65h-334v-242h324v-66h-324v-242h334v-65zM355 750h-56l-110 143h76z" />
    <glyph glyph-name="Iacute" unicode="&#xcd;" horiz-adv-x="220" 
d="M145 0h-70v680h70v-680zM254 893l-110 -143h-56l80 143h86z" />
    <glyph glyph-name="Icircumflex" unicode="&#xce;" horiz-adv-x="220" 
d="M145 0h-70v680h70v-680zM111 856l-72 -106h-71l110 143h66l110 -143h-71z" />
    <glyph glyph-name="Idieresis" unicode="&#xcf;" horiz-adv-x="220" 
d="M145 0h-70v680h70v-680zM234 826c8.66699 -8.66699 13 -19.167 13 -31.5s-4.33301 -22.833 -13 -31.5s-19.334 -13 -32.001 -13s-23.167 4.33301 -31.5 13s-12.5 19.167 -12.5 31.5s4.16699 22.833 12.5 31.5s18.833 13 31.5 13s23.334 -4.33301 32.001 -13zM52 826
c8.66699 -8.66699 13 -19.167 13 -31.5s-4.33301 -22.833 -13 -31.5s-19.334 -13 -32.001 -13s-23.167 4.33301 -31.5 13s-12.5 19.167 -12.5 31.5s4.16699 22.833 12.5 31.5s18.833 13 31.5 13s23.334 -4.33301 32.001 -13z" />
    <glyph glyph-name="Igrave" unicode="&#xcc;" horiz-adv-x="220" 
d="M145 0h-70v680h70v-680zM147 750h-56l-110 143h76z" />
    <glyph glyph-name="Oacute" unicode="&#xd3;" horiz-adv-x="789" 
d="M674 342c0 76.667 -27.333 142.334 -82 197.001s-120.667 82 -198 82c-76.667 0 -142.334 -27.333 -197.001 -82s-82 -120.334 -82 -197.001c0 -77.333 27.333 -143.333 82 -198s120.334 -82 197.001 -82c77.333 0 143.333 27.333 198 82s82 120.667 82 198zM744 342
c0 -48 -9.16699 -93.333 -27.5 -136s-43.333 -79.834 -75 -111.501s-68.834 -56.667 -111.501 -75s-88 -27.5 -136 -27.5s-93.167 9.16699 -135.5 27.5s-79.333 43.333 -111 75s-56.667 68.834 -75 111.501s-27.5 88 -27.5 136s9.16699 93.333 27.5 136
s43.333 79.667 75 111s68.667 56.166 111 74.499s87.5 27.5 135.5 27.5s93.333 -9.16699 136 -27.5s79.834 -43.166 111.501 -74.499s56.667 -68.333 75 -111s27.5 -88 27.5 -136zM532 893l-110 -143h-56l80 143h86z" />
    <glyph glyph-name="Ocircumflex" unicode="&#xd4;" horiz-adv-x="789" 
d="M674 342c0 76.667 -27.333 142.334 -82 197.001s-120.667 82 -198 82c-76.667 0 -142.334 -27.333 -197.001 -82s-82 -120.334 -82 -197.001c0 -77.333 27.333 -143.333 82 -198s120.334 -82 197.001 -82c77.333 0 143.333 27.333 198 82s82 120.667 82 198zM744 342
c0 -48 -9.16699 -93.333 -27.5 -136s-43.333 -79.834 -75 -111.501s-68.834 -56.667 -111.501 -75s-88 -27.5 -136 -27.5s-93.167 9.16699 -135.5 27.5s-79.333 43.333 -111 75s-56.667 68.834 -75 111.501s-27.5 88 -27.5 136s9.16699 93.333 27.5 136
s43.333 79.667 75 111s68.667 56.166 111 74.499s87.5 27.5 135.5 27.5s93.333 -9.16699 136 -27.5s79.834 -43.166 111.501 -74.499s56.667 -68.333 75 -111s27.5 -88 27.5 -136zM394 856l-72 -106h-71l110 143h66l110 -143h-71z" />
    <glyph glyph-name="Ograve" unicode="&#xd2;" horiz-adv-x="789" 
d="M674 342c0 76.667 -27.333 142.334 -82 197.001s-120.667 82 -198 82c-76.667 0 -142.334 -27.333 -197.001 -82s-82 -120.334 -82 -197.001c0 -77.333 27.333 -143.333 82 -198s120.334 -82 197.001 -82c77.333 0 143.333 27.333 198 82s82 120.667 82 198zM744 342
c0 -48 -9.16699 -93.333 -27.5 -136s-43.333 -79.834 -75 -111.501s-68.834 -56.667 -111.501 -75s-88 -27.5 -136 -27.5s-93.167 9.16699 -135.5 27.5s-79.333 43.333 -111 75s-56.667 68.834 -75 111.501s-27.5 88 -27.5 136s9.16699 93.333 27.5 136
s43.333 79.667 75 111s68.667 56.166 111 74.499s87.5 27.5 135.5 27.5s93.333 -9.16699 136 -27.5s79.834 -43.166 111.501 -74.499s56.667 -68.333 75 -111s27.5 -88 27.5 -136zM422 750h-56l-110 143h76z" />
    <glyph glyph-name="Uacute" unicode="&#xda;" horiz-adv-x="627" 
d="M567 225c0 -73.6475 -24 -131.646 -72 -173.999c-45.333 -40 -105.666 -60 -180.999 -60c-76 0 -136.667 20 -182 60c-48 42.3525 -72 100.353 -72 174v455h70v-465c0 -51.0986 18.5 -90.4316 55.5 -118c32.21 -24 75.043 -36 128.499 -36c83.0342 0 139.034 28 168 84
c10 19.333 15 42.666 15 69.999v465h70v-455zM456 893.001l-110 -143h-56l80 143h86z" />
    <glyph glyph-name="Ucircumflex" unicode="&#xdb;" horiz-adv-x="627" 
d="M567 225c0 -73.6475 -24 -131.646 -72 -173.999c-45.333 -40 -105.666 -60 -180.999 -60c-76 0 -136.667 20 -182 60c-48 42.3525 -72 100.353 -72 174v455h70v-465c0 -51.0986 18.5 -90.4316 55.5 -118c32.21 -24 75.043 -36 128.499 -36c83.0342 0 139.034 28 168 84
c10 19.333 15 42.666 15 69.999v465h70v-455zM314 856.001l-72 -106h-71l110 143h66l110 -143h-71z" />
    <glyph glyph-name="Ugrave" unicode="&#xd9;" horiz-adv-x="627" 
d="M567 225c0 -73.6475 -24 -131.646 -72 -173.999c-45.333 -40 -105.666 -60 -180.999 -60c-76 0 -136.667 20 -182 60c-48 42.3525 -72 100.353 -72 174v455h70v-465c0 -51.0986 18.5 -90.4316 55.5 -118c32.21 -24 75.043 -36 128.499 -36c83.0342 0 139.034 28 168 84
c10 19.333 15 42.666 15 69.999v465h70v-455zM352 750.001h-56l-110 143h76z" />
    <glyph glyph-name="dotlessi" unicode="&#x131;" horiz-adv-x="229" 
d="M150 0h-70v440h70v-440z" />
    <glyph glyph-name="circumflex" unicode="&#x2c6;" horiz-adv-x="306" 
d="M153 856l-72 -106h-71l110 143h66l110 -143h-71z" />
    <glyph glyph-name="tilde" unicode="&#x2dc;" horiz-adv-x="419" 
d="M45 730c-1.27637 44.6719 11.2256 79.5098 37.502 104.504c13.667 13 32.834 19.5 57.501 19.5s43 -4.16699 55 -12.5s22.167 -17.5 30.5 -27.5s16.333 -19.167 24 -27.5s17.5 -12.5 29.5 -12.5s21 1.66699 27 5s10.333 8.16602 13 14.499
c3.33301 7.91699 5 24.417 5 49.5h49c4.93262 -44.3975 -6.23438 -79.5645 -33.501 -105.501c-13.667 -13 -33.334 -19.5 -59.001 -19.5s-44.5 4.16699 -56.5 12.5s-22.167 17.666 -30.5 27.999s-16.5 19.666 -24.5 27.999s-18.667 12.5 -32 12.5
c-21.9482 0 -35.6152 -11.667 -41 -35c-2.66699 -10 -3.33398 -21.333 -2.00098 -34h-49z" />
    <glyph glyph-name="ring" unicode="&#x2da;" horiz-adv-x="267" 
d="M102.5 804c-8.33301 -8 -12.499 -17.5 -12.499 -28.5s4.16699 -20.5 12.5 -28.5s18.666 -12 30.999 -12s22.5 4 30.5 12s12 17.5 12 28.5s-4.16699 20.5 -12.5 28.5s-18.5 12 -30.5 12s-22.167 -4 -30.5 -12zM35.001 775c0 26.3955 9.83301 49.0625 29.5 68.001
c19.3848 18.667 42.2178 28 68.5 28c25.8662 0 48.6992 -9.16699 68.499 -27.5c19.667 -18.21 29.5 -41.043 29.5 -68.5c0 -26.3955 -9.83301 -49.0625 -29.5 -68.001c-18.6924 -18 -41.5254 -27 -68.5 -27c-25.8662 0 -48.6992 9.16699 -68.499 27.5
c-19.667 18.21 -29.5 40.71 -29.5 67.5z" />
    <glyph glyph-name="cedilla" unicode="&#xb8;" horiz-adv-x="539" 
d="M265 -46c1 0.666992 9.58203 1 25.749 1s30.417 -4 42.75 -12s22.166 -18.5 29.499 -31.5c16.916 -29.9873 18.249 -61.8203 4 -95.5c-15.2822 -36.9326 -47.6152 -58.7656 -96.999 -65.5c-45.5811 -6.21582 -91.9141 -0.0488281 -139 18.5l25 52
c37.3027 -13.3223 73.1357 -18.1553 107.5 -14.5c35.166 3.74121 53.999 16.2412 56.5 37.5c6.05664 35.1279 -9.61035 55.4609 -47 61c-14 2 -28.667 1.66699 -44 -1s-29.666 -5 -42.999 -7l74 163l56 1z" />
    <glyph glyph-name="caron" unicode="&#x2c7;" horiz-adv-x="1060" 
 />
    <glyph glyph-name="Eth" unicode="&#xd0;" horiz-adv-x="648" 
d="M535 340c0 77.5439 -27.333 142.211 -82 194c-53.4814 50.667 -119.481 76 -198 76h-110v-258h198v-57h-198v-225h110c78.5186 0 144.519 25.333 198 76c54.667 51.7891 82 116.456 82 194zM603 340c0 -49.333 -9.16699 -94.833 -27.5 -136.5
s-43.166 -77.5 -74.499 -107.5s-68.333 -53.5 -111 -70.5s-88.334 -25.5 -137.001 -25.5h-178v295h-67v57h67v328h178c48.667 0 94.334 -8.5 137.001 -25.5s79.667 -40.5 111 -70.5s56.166 -65.833 74.499 -107.5s27.5 -87.167 27.5 -136.5z" />
    <glyph glyph-name="eth" unicode="&#xf0;" 
d="M495 0l-70 0.00195312v75.1348c-3.92578 -5.14062 -8.09277 -10.1855 -12.5 -15.1348c-41.5625 -46.667 -92.7295 -70 -153.5 -70s-111.938 23.333 -153.5 70c-40.333 45.2861 -60.5 98.6191 -60.5 159.999s20.167 114.713 60.5 159.999
c41.5625 46.667 92.7295 70 153.5 70s111.938 -23.333 153.5 -70c4.40723 -4.94922 8.57422 -9.99414 12.5 -15.1348v181.135h-200v57h200v147h70v-147h65v-57h-65v-546zM425 220.002c0 42.8291 -14.833 80.1621 -44.5 112c-29.8184 32 -66.6514 48 -110.5 48
s-80.6816 -16 -110.5 -48c-29.667 -31.8379 -44.5 -69.1709 -44.5 -112s14.833 -80.1621 44.5 -112c29.8184 -32 66.6514 -48 110.5 -48s80.6816 16 110.5 48c29.667 31.8379 44.5 69.1709 44.5 112z" />
    <glyph glyph-name="Yacute" unicode="&#xdd;" horiz-adv-x="605" 
d="M338 320.024v-320.024h-70v319.856l-258 360.144h90l203 -291l203 291h89zM448 893l-110 -143h-56l80 143h86z" />
    <glyph glyph-name="yacute" unicode="&#xfd;" horiz-adv-x="425" 
d="M131 -250h-85l148 322l-184 368h80l141 -295l126 295h78zM368 681l-110 -143h-56l80 143h86z" />
    <glyph glyph-name="minus" unicode="&#x2212;" horiz-adv-x="360" 
d="M323 193h-285v57h285v-57z" />
    <glyph glyph-name="multiply" unicode="&#xd7;" horiz-adv-x="460" 
d="M386 106l-40 -40l-116 116l-116 -116l-40 40l115 116l-115 116l40 41l116 -116l116 116l40 -41l-115 -116z" />
    <glyph glyph-name="apple" unicode="&#xf8ff;" horiz-adv-x="926" 
d="M284 247c0 -11.333 -6 -17 -18 -17c-4.66699 0 -8.66699 1.5 -12 4.5s-5 7.16699 -5 12.5v262c0 5.33301 1.66699 9.66602 5 12.999s7.5 5 12.5 5s9.16699 -1.66699 12.5 -5s5 -7.66602 5 -12.999v-262zM397 395c12 0 18 -5.66699 18 -17s-6 -17 -18 -17h-65
c-11.333 0 -17 5.66699 -17 17s5.66699 17 17 17h65zM463 527c11.333 0 17 -6 17 -18v-262c0 -11.333 -5.66699 -17 -17 -17s-17 5.66699 -17 17v262c0 12 5.66699 18 17 18zM663 526l6 -2c5.33301 -5.33301 8 -10.333 8 -15s-1.66699 -8.66699 -5 -12l-119 -119l119 -119
c3.33301 -3.33301 5 -7.33301 5 -12s-1.66699 -8.66699 -5 -12s-7.33301 -5 -12 -5s-8.66699 1.66699 -12 5l-132 131c-3.33301 3.33301 -5 7.33301 -5 12s1.66699 8.66699 5 12l132 131c2.5 3.33301 6.83301 5 13 5h2zM806 378c0 47.333 -9 91.833 -27 133.5
s-42.5 78 -73.5 109s-67.333 55.5 -109 73.5s-86.167 27 -133.5 27s-91.833 -9 -133.5 -27s-78 -42.5 -109 -73.5s-55.5 -67.333 -73.5 -109s-27 -86.167 -27 -133.5s9 -91.833 27 -133.5s42.5 -78 73.5 -109s67.333 -55.5 109 -73.5s86.167 -27 133.5 -27
s91.833 9 133.5 27s78 42.5 109 73.5s55.5 67.333 73.5 109s27 86.167 27 133.5zM841 378c0 -52 -9.83301 -101 -29.5 -147s-46.667 -86.167 -81 -120.5s-74.5 -61.333 -120.5 -81s-95 -29.5 -147 -29.5s-101 9.83301 -147 29.5s-86.167 46.667 -120.5 81
s-61.333 74.5 -81 120.5s-29.5 95 -29.5 147s9.83301 101 29.5 147s46.667 86.167 81 120.5s74.5 61.333 120.5 81s95 29.5 147 29.5s101 -9.83301 147 -29.5s86.167 -46.667 120.5 -81s61.333 -74.5 81 -120.5s29.5 -95 29.5 -147z" />
    <glyph glyph-name="Thorn" unicode="&#xde;" horiz-adv-x="529" 
d="M509 375c0 -59.333 -21.167 -108.833 -63.5 -148.5c-41 -38.333 -91.833 -57.5 -152.5 -57.5h-148v-169h-70v680.286h70v-100.286h148c60 0 110.833 -19 152.5 -57c42.333 -38.667 63.5 -88 63.5 -148zM145 513l0.000976562 -276h158c39.333 0 71.666 13.167 96.999 39.5
c26 27 39 60.4307 39 100.292c0 40.1387 -12.333 72.875 -37 98.208s-57.667 38 -99 38h-158z" />
    <glyph glyph-name="thorn" unicode="&#xfe;" 
d="M145 -250l-70.001 -0.00195312v1000h70v-385.135c4 5.42285 8.16699 10.4678 12.5 15.1348c41.667 46.667 92.834 70 153.501 70s111.834 -23.333 153.501 -70c40.333 -45.333 60.5 -98.666 60.5 -159.999s-20.167 -114.666 -60.5 -159.999
c-41.667 -46.667 -92.834 -70 -153.501 -70c-59.333 0 -110.5 23.333 -153.5 70c-4.33301 4.66699 -8.5 9.71191 -12.5 15.1348v-325.135zM454.999 219.998c0 42.8291 -14.833 80.1621 -44.5 112c-29.8184 32 -66.6514 48 -110.5 48s-80.6816 -16 -110.5 -48
c-29.667 -31.8379 -44.5 -69.1709 -44.5 -112s14.833 -80.1621 44.5 -112c29.8184 -32 66.6514 -48 110.5 -48s80.6816 16 110.5 48c29.667 31.8379 44.5 69.1709 44.5 112z" />
    </font>
</defs>
</svg>
